Kylie Minogue - The making of Chocolate (Upscale 1080p)

Discussion in 'Documentaries' started by Pueblos, Jul 11, 2019.

  1. Pueblos

    Pueblos Active Member

    Joined:
    Apr 1, 2014
    Messages:
    201
    Likes Received:
    108
    [​IMG]
    Source: Betacam SP
    Video
    ID : 2
    Format : AVC
    Format/Info : Advanced Video Codec
    Format profile : High@L5.1
    Format settings : CABAC / 3 Ref Frames
    Format settings, CABAC : Yes
    Format settings, ReFrames : 3 frames
    Codec ID : V_MPEG4/ISO/AVC
    Duration : 2 min 51 s
    Bit rate mode : Variable
    Bit rate : 15.0 Mb/s
    Maximum bit rate : 35.0 Mb/s
    Width : 1 440 pixels
    Height : 1 080 pixels
    Display aspect ratio : 4:3
    Frame rate mode : Constant
    Frame rate : 50.000 FPS
    Standard : PAL
    Color space : YUV
    Chroma subsampling : 4:2:0
    Bit depth : 8 bits
    Scan type : Progressive
    Bits/(Pixel*Frame) : 0.193
    Stream size : 306 MiB (98%)
    Writing library : x264 core 114
    Encoding settings : cabac=1 / ref=3 / deblock=1:0:0 / analyse=0x3:0x113 / me=hex / subme=7 / psy=1 / psy_rd=1.00:0.00 / mixed_ref=1 / me_range=16 / chroma_me=1 / trellis=1 / 8x8dct=1 / cqm=2 / deadzone=21,11 / fast_pskip=1 / chroma_qp_offset=-4 / threads=12 / sliced_threads=0 / slices=1 / nr=0 / decimate=1 / interlaced=0 / constrained_intra=0 / bframes=3 / b_pyramid=0 / b_adapt=1 / b_bias=0 / direct=1 / weightb=1 / open_gop=0 / weightp=2 / keyint=100 / keyint_min=10 / scenecut=40 / intra_refresh=0 / rc_lookahead=40 / rc=2pass / mbtree=1 / bitrate=15000 / ratetol=1.0 / qcomp=0.60 / qpmin=5 / qpmax=69 / qpstep=4 / cplxblur=20.0 / qblur=0.5 / vbv_maxrate=35000 / vbv_bufsize=34996 / nal_hrd=vbr / ip_ratio=1.40 / aq=1:1.00
    Default : Yes
    Forced : No
    Color range : Limited
    Color primaries : BT.709
    Transfer characteristics : BT.709
    Matrix coefficients : BT.709

    Audio
    ID : 1
    Format : AAC LC
    Format/Info : Advanced Audio Codec Low Complexity
    Codec ID : A_AAC-2
    Duration : 2 min 51 s
    Bit rate : 256 kb/s
    Channel(s) : 2 channels
    Channel layout : L R
    Sampling rate : 48.0 kHz
    Frame rate : 46.875 FPS (1024 SPF)
    Compression mode : Lossy
    Stream size : 5.23 MiB (2%)
    Default : Yes
    Forced : No
    Hidden Content:
    You must reply before you can see the hidden data contained here.
     
  2. Loading...


  3. ThePixelFarm

    ThePixelFarm Livin' in a dream... Capper

    Joined:
    Aug 31, 2018
    Messages:
    1,188
    Likes Received:
    2,230
    Many thanks...
    Oh, any chance, of posting the source... :D
     
    Pueblos likes this.
  4. rkgmade

    rkgmade Well-Known Member

    Joined:
    Sep 29, 2016
    Messages:
    2,280
    Likes Received:
    133
    thanks
     
  5. TrendMusic

    TrendMusic Well-Known Member

    Joined:
    Oct 7, 2013
    Messages:
    2,025
    Likes Received:
    208
    thanks Pueblos :)
     
  6. GPL4EVER

    GPL4EVER Member

    Joined:
    Oct 19, 2013
    Messages:
    222
    Likes Received:
    14
    thanks
     
  7. Danny82

    Danny82 Well-Known Member

    Joined:
    May 28, 2016
    Messages:
    2,719
    Likes Received:
    1,021
    Thanks a lot! :victory:
     
  8. manhunter

    manhunter Active Member

    Joined:
    Jun 8, 2016
    Messages:
    357
    Likes Received:
    46
    THANK YOU!!!
     
  9. robertsnake

    robertsnake Member

    Joined:
    Dec 24, 2016
    Messages:
    169
    Likes Received:
    8
    thank you
     
  10. lumiillerjr

    lumiillerjr Active Member

    Joined:
    Jan 24, 2019
    Messages:
    336
    Likes Received:
    69
    omg thanks
     
  11. Luis Almeida

    Luis Almeida Well-Known Member

    Joined:
    Feb 4, 2015
    Messages:
    1,582
    Likes Received:
    151
  12. Dyego Lucas de Oliveira

    Dyego Lucas de Oliveira Active Member

    Joined:
    Sep 10, 2014
    Messages:
    330
    Likes Received:
    30
    Loveeee youuuuuu
     
  13. Brian77

    Brian77 Active Member

    Joined:
    Dec 18, 2015
    Messages:
    36
    Likes Received:
    162
    thanks
     
  14. peny20

    peny20 Well-Known Member

    Joined:
    Oct 23, 2013
    Messages:
    2,986
    Likes Received:
    97
    thanks
     
  15. filou

    filou New Member

    Joined:
    Dec 18, 2015
    Messages:
    9
    Likes Received:
    1
    Thank you
     
  16. Wagnerr

    Wagnerr Member

    Joined:
    Sep 21, 2014
    Messages:
    455
    Likes Received:
    23
    thank you
     
  17. derekdilan

    derekdilan Member

    Joined:
    Jan 13, 2017
    Messages:
    144
    Likes Received:
    2
  18. fendyzachariey

    fendyzachariey Member

    Joined:
    Jun 23, 2017
    Messages:
    557
    Likes Received:
    16