Kylie Minogue - Magic [AAC-1080P-Facebook]

Discussion in 'OTHERS' started by WDRB_GSZMZ, Sep 25, 2020.

  1. WDRB_GSZMZ

    WDRB_GSZMZ Well-Known Member

    Joined:
    Mar 23, 2018
    Messages:
    699
    Likes Received:
    300
    [​IMG]
    General
    Format : MPEG-4
    Format profile : Base Media
    Codec ID : isom (isom)
    File size : 186 MiB
    Duration : 3 min 35 s
    Overall bit rate mode : Variable
    Overall bit rate : 7 223 kb/s
    Encoded date : UTC 2020-09-25 08:28:38
    Tagged date : UTC 2020-09-25 08:28:38

    Video
    ID : 1
    Format : AVC
    Format/Info : Advanced Video Codec
    Format profile : Main@L4
    Format settings : CABAC / 5 Ref Frames
    Format settings, CABAC : Yes
    Format settings, Reference fra : 5 frames
    Codec ID : avc1
    Codec ID/Info : Advanced Video Coding
    Duration : 3 min 35 s
    Source duration : 3 min 35 s
    Bit rate : 7 093 kb/s
    Maximum bit rate : 17.1 Mb/s
    Width : 1 920 pixels
    Height : 1 080 pixels
    Display aspect ratio : 16:9
    Frame rate mode : Constant
    Frame rate : 25.000 FPS
    Color space : YUV
    Chroma subsampling : 4:2:0
    Bit depth : 8 bits
    Scan type : Progressive
    Bits/(Pixel*Frame) : 0.137
    Stream size : 182 MiB (98%)
    Source stream size : 182 MiB (98%)
    Writing library : x264 core 157
    Encoding settings : cabac=1 / ref=5 / deblock=1:0:0 / analyse=0x1:0x111 / me=hex / subme=8 / psy=0 / mixed_ref=1 / me_range=16 / chroma_me=1 / trellis=2 / 8x8dct=0 / cqm=0 / deadzone=21,11 / fast_pskip=1 / chroma_qp_offset=0 / threads=34 / lookahead_threads=5 / sliced_threads=0 / nr=0 / decimate=1 / interlaced=0 / bluray_compat=0 / constrained_intra=0 / bframes=3 / b_pyramid=2 / b_adapt=1 / b_bias=0 / direct=3 / weightb=1 / open_gop=0 / weightp=2 / keyint=50 / keyint_min=26 / scenecut=0 / intra_refresh=0 / rc_lookahead=50 / rc=crf / mbtree=1 / crf=23.0 / qcomp=0.60 / qpmin=0 / qpmax=69 / qpstep=4 / vbv_maxrate=16200 / vbv_bufsize=32400 / crf_max=0.0 / nal_hrd=none / filler=0 / ip_ratio=1.40 / aq=2:1.00
    Language : English
    Tagged date : UTC 2020-09-25 08:28:38
    Color range : Limited
    Color primaries : BT.709
    Transfer characteristics : BT.709
    Matrix coefficients : BT.709
    Codec configuration box : avcC

    Audio
    ID : 2
    Format : AAC LC
    Format/Info : Advanced Audio Codec Low Complexity
    Codec ID : mp4a-40-2
    Duration : 3 min 35 s
    Source duration : 3 min 35 s
    Bit rate mode : Variable
    Bit rate : 128 kb/s
    Maximum bit rate : 131 kb/s
    Channel(s) : 2 channels
    Channel layout : L R
    Sampling rate : 48.0 kHz
    Frame rate : 46.875 FPS (1024 SPF)
    Compression mode : Lossy
    Stream size : 3.29 MiB (2%)
    Source stream size : 3.29 MiB (2%)
    Language : English
    Default : Yes
    Alternate group : 1
    Tagged date : UTC 2020-09-25 08:28:38
    Hidden Content:
    You must reply before you can see the hidden data contained here.
     
  2. Loading...


  3. TrendMusic

    TrendMusic Well-Known Member

    Joined:
    Oct 7, 2013
    Messages:
    2,194
    Likes Received:
    250
    Source Facebook? Thanks, better quality than YouTube. :love:
     
    Last edited: Sep 25, 2020
  4. antoniojoseguizilini

    antoniojoseguizilini Well-Known Member

    Joined:
    Dec 2, 2016
    Messages:
    2,121
    Likes Received:
    161
    thanks
     
  5. Jesus Miguel Rivero

    Jesus Miguel Rivero Well-Known Member

    Joined:
    Jul 9, 2015
    Messages:
    3,009
    Likes Received:
    165
    Thanks for sharing :D
     
  6. 12wurzel

    12wurzel Well-Known Member

    Joined:
    Oct 16, 2016
    Messages:
    1,240
    Likes Received:
    146
    thanks
     
  7. derekdilan

    derekdilan Member

    Joined:
    Jan 13, 2017
    Messages:
    394
    Likes Received:
    15
  8. Biszczan

    Biszczan Active Member Donor

    Joined:
    May 14, 2017
    Messages:
    571
    Likes Received:
    49
    Thanks :):D
     
  9. markitomg

    markitomg Well-Known Member

    Joined:
    May 24, 2016
    Messages:
    1,855
    Likes Received:
    1,753
    tnks 4 sharing
     
  10. nathanjuniorrf28

    nathanjuniorrf28 ToxicNTN

    Joined:
    Jul 24, 2016
    Messages:
    723
    Likes Received:
    479
  11. robertsnake

    robertsnake Member

    Joined:
    Dec 24, 2016
    Messages:
    220
    Likes Received:
    14
    thanks
     
  12. maxl

    maxl Active Member

    Joined:
    Dec 18, 2015
    Messages:
    276
    Likes Received:
    29
    gracias
     
  13. kowalski2016

    kowalski2016 Active Member

    Joined:
    May 18, 2016
    Messages:
    597
    Likes Received:
    44
    thank you!
     
  14. RIKI23

    RIKI23 Active Member

    Joined:
    Oct 13, 2013
    Messages:
    648
    Likes Received:
    40
    thx thx thx
     
  15. wattjunior

    wattjunior Member

    Joined:
    Dec 10, 2015
    Messages:
    436
    Likes Received:
    12
  16. speciald

    speciald Active Member

    Joined:
    Dec 18, 2015
    Messages:
    434
    Likes Received:
    38
    Thanks!
     
  17. musicmen

    musicmen Active Member

    Joined:
    May 16, 2019
    Messages:
    793
    Likes Received:
    125
    thanks you
     
  18. josedavidhcu

    josedavidhcu Active Member

    Joined:
    Jun 23, 2016
    Messages:
    595
    Likes Received:
    109
  19. nolynexor88

    nolynexor88 nolynexor88

    Joined:
    Sep 29, 2015
    Messages:
    2,082
    Likes Received:
    209
  20. funnoo

    funnoo Active Member

    Joined:
    Jun 3, 2016
    Messages:
    245
    Likes Received:
    102
    thanks
     
  21. J_anb

    J_anb Member

    Joined:
    Mar 17, 2015
    Messages:
    136
    Likes Received:
    17
    Thanks!