Kylie Minogue - Into The Blue (MULTISHOWHD-1080i-DD5.1-CELOBRAZiL)

Discussion in 'MULTISHOW HD' started by Snorom6, Jun 7, 2016.

  1. Snorom6

    Snorom6 Well-Known Member Uploader

    Joined:
    Dec 17, 2015
    Messages:
    4,245
    Likes Received:
    4,168
    Kylie Minogue - Into The Blue (MULTISHOWHD-1080i-DD5.1-CELOBRAZiL)


    [​IMG]


    Code:
    General
    ID                             : 1 (0x1)
    Complete name                  : Kylie Minogue - Into The Blue (MULTISHOWHD-1080i-DD5.1-CELOBRAZiL).ts
    Format                         : MPEG-TS
    File size                      : 280 MiB
    Duration                       : 4mn 24s
    Overall bit rate mode          : Variable
    Overall bit rate               : 8 903 Kbps
    
    Video
    ID                             : 4384 (0x1120)
    Menu ID                        : 1 (0x1)
    Format                         : AVC
    Format/Info                    : Advanced Video Codec
    Format profile                 : [email protected]
    Format settings, CABAC         : Yes
    Format settings, ReFrames      : 4 frames
    Codec ID                       : 27
    Duration                       : 4mn 24s
    Bit rate                       : 7 881 Kbps
    Width                          : 1 920 pixels
    Height                         : 1 080 pixels
    Display aspect ratio           : 16:9
    Frame rate                     : 29.970 fps
    Standard                       : Component
    Color space                    : YUV
    Chroma subsampling             : 4:2:0
    Bit depth                      : 8 bits
    Scan type                      : MBAFF
    Scan order                     : Top Field First
    Bits/(Pixel*Frame)             : 0.127
    Stream size                    : 248 MiB (89%)
    Color range                    : Limited
    Color primaries                : BT.709
    Transfer characteristics       : BT.709
    Matrix coefficients            : BT.709
    
    Audio #1
    ID                             : 4385 (0x1121)
    Menu ID                        : 1 (0x1)
    Format                         : AC-3
    Format/Info                    : Audio Coding 3
    Mode extension                 : CM (complete main)
    Format settings, Endianness    : Big
    Codec ID                       : 129
    Duration                       : 4mn 24s
    Bit rate mode                  : Constant
    Bit rate                       : 384 Kbps
    Channel(s)                     : 6 channels
    Channel positions              : Front: L C R, Side: L R, LFE
    Sampling rate                  : 48.0 KHz
    Compression mode               : Lossy
    Stream size                    : 12.1 MiB (4%)
    Language                       : Portuguese
    
    Audio #2
    ID                             : 4386 (0x1122)
    Menu ID                        : 1 (0x1)
    Format                         : MPEG Audio
    Format version                 : Version 1
    Format profile                 : Layer 2
    Codec ID                       : 3
    Duration                       : 4mn 24s
    Bit rate mode                  : Constant
    Bit rate                       : 192 Kbps
    Channel(s)                     : 2 channels
    Sampling rate                  : 48.0 KHz
    Compression mode               : Lossy
    Stream size                    : 6.04 MiB (2%)
    Language                       : English
    
    

    Hidden Content:
    You must either reply or click 'Like' to see the hidden information contained here.
    Hidden Content:
    You must either reply or click 'Like' to see the hidden information contained here.
     
  2. giddeon85

    giddeon85 Member

    Joined:
    Aug 5, 2016
    Messages:
    261
    Likes Received:
    9
    thanks!
     
  3. wattjunior

    wattjunior Member

    Joined:
    Dec 10, 2015
    Messages:
    220
    Likes Received:
    7
    thank uuuu