Kylie Minogue - Can't Get You Out Of My Head (MTVIDOL-1080i-DD2.0-Djodjara)-HDMania

Discussion in 'MTV IDOL' started by Djodjara, May 22, 2015.

  1. Djodjara

    Djodjara Gwen Fan Capper

    Joined:
    Sep 6, 2014
    Messages:
    714
    Likes Received:
    1,174
    Kylie Minogue - Can't Get You Out Of My Head (MTV Idol-1080i-Djodjara)-HDMania

    [​IMG]
    [​IMG]

    General:
    ID : 1 (0x1)
    Format : MPEG-TS
    File size : 148 MiB
    Duration : 3mn 47s
    Overall bit rate mode : Variable
    Overall bit rate : 5 471 Kbps

    Video:
    ID : 310 (0x136)
    Menu ID : 1 (0x1)
    Format : AVC
    Format/Info : Advanced Video Codec
    Format profile : [email protected]
    Format settings, CABAC : Yes
    Format settings, ReFrames : 4 frames
    Codec ID : 27
    Duration : 3mn 47s
    Bit rate : 5 006 Kbps
    Width : 1 920 pixels
    Height : 1 080 pixels
    Display aspect ratio : 16:9
    Frame rate : 25.000 fps
    Standard : Component
    Color space : YUV
    Chroma subsampling : 4:2:0
    Bit depth : 8 bits
    Scan type : MBAFF
    Scan order : Top Field First
    Bits/(Pixel*Frame) : 0.097
    Stream size : 136 MiB (92%)
    Color primaries : BT.709
    Transfer characteristics : BT.709
    Matrix coefficients : BT.709
    Color range : Limited

    Audio:
    ID : 321 (0x141)
    Menu ID : 1 (0x1)
    Format : AC-3
    Format/Info : Audio Coding 3
    Mode extension : CM (complete main)
    Format settings, Endianness : Big
    Codec ID : 6
    Duration : 3mn 47s
    Bit rate mode : Constant
    Bit rate : 192 Kbps
    Channel(s) : 2 channels
    Channel positions : Front: L R
    Sampling rate : 48.0 KHz
    Bit depth : 16 bits
    Compression mode : Lossy
    Stream size : 5.20 MiB (4%)
    Language : French

    Hidden Content:
    You must reply before you can see the hidden data contained here.
     
  2. MaggieS

    MaggieS Active Member

    Joined:
    Sep 19, 2014
    Messages:
    963
    Likes Received:
    38
    tnx u
     
  3. 777josem

    777josem Well-Known Member Uploader

    Joined:
    Sep 1, 2014
    Messages:
    2,947
    Likes Received:
    1,577
    :happy:Thank you so much!
     
  4. DETOX

    DETOX Well-Known Member V . I . P. Uploader

    Joined:
    Feb 20, 2014
    Messages:
    2,849
    Likes Received:
    17,041
    Thank you!
     
  5. mizdot

    mizdot Well-Known Member

    Joined:
    Nov 13, 2014
    Messages:
    1,242
    Likes Received:
    25
    tnx nab
     
  6. multimediafm

    multimediafm Well-Known Member Donor

    Joined:
    Mar 27, 2014
    Messages:
    8,580
    Likes Received:
    368
    Thanks :)
    Kylie Minogue - Can't Get You Out Of My Head (MTV Idol-1080i-Djodjara)-HDMania
     
  7. Joseph

    Joseph Active Member

    Joined:
    Dec 10, 2013
    Messages:
    743
    Likes Received:
    163
    thank you
     
  8. Dreamer

    Dreamer Lana Del Rey ♥ Capper Uploader

    Joined:
    Dec 4, 2014
    Messages:
    2,508
    Likes Received:
    2,685
    Thank u
     
  9. TrendMusic

    TrendMusic Well-Known Member

    Joined:
    Oct 7, 2013
    Messages:
    1,103
    Likes Received:
    71
    thanks for Queen KYLIE
     
  10. rhea

    rhea Well-Known Member

    Joined:
    Jan 6, 2014
    Messages:
    5,666
    Likes Received:
    366
    thank you so much!
     
  11. Zatimi

    Zatimi Active Member

    Joined:
    Aug 27, 2014
    Messages:
    635
    Likes Received:
    77
    thanks a lot
     
  12. adam dark

    adam dark Video Music Lover <3 V . I . P.

    Joined:
    Dec 5, 2013
    Messages:
    2,550
    Likes Received:
    4,259
  13. nn_rod

    nn_rod Member

    Joined:
    Aug 1, 2014
    Messages:
    575
    Likes Received:
    6
    thank u
     
  14. GPL4EVER

    GPL4EVER Member

    Joined:
    Oct 19, 2013
    Messages:
    87
    Likes Received:
    5
    Thank you for Kylie!
     
  15. Crusha

    Crusha Well-Known Member Capper

    Joined:
    Oct 15, 2014
    Messages:
    2,350
    Likes Received:
    2,252
    thank you :)
     
  16. 江雨燃双鱼

    江雨燃双鱼 Active Member

    Joined:
    Apr 5, 2014
    Messages:
    595
    Likes Received:
    36
  17. RIKI23

    RIKI23 Member

    Joined:
    Oct 13, 2013
    Messages:
    344
    Likes Received:
    18
    thanks a lot
     
  18. lifevirgin

    lifevirgin Active Member

    Joined:
    Feb 15, 2014
    Messages:
    362
    Likes Received:
    31
  19. Daydream

    Daydream Member

    Joined:
    Mar 1, 2015
    Messages:
    222
    Likes Received:
    6
    Thank you
     
  20. tf135

    tf135 Well-Known Member

    Joined:
    Nov 14, 2014
    Messages:
    1,842
    Likes Received:
    106
    thank you