Kylie Minogue - Can't Get You Out Of My Head (MTVIDOL-1080i-DD2.0-Djodjara)-HDMania

Discussion in 'MTV IDOL' started by Djodjara, May 22, 2015.

  1. Djodjara

    Djodjara Gwen Fan Capper V . I . P.

    Joined:
    Sep 6, 2014
    Messages:
    1,445
    Likes Received:
    3,372
    Kylie Minogue - Can't Get You Out Of My Head (MTV Idol-1080i-Djodjara)-HDMania

    [​IMG]
    [​IMG]

    General:
    ID : 1 (0x1)
    Format : MPEG-TS
    File size : 148 MiB
    Duration : 3mn 47s
    Overall bit rate mode : Variable
    Overall bit rate : 5 471 Kbps

    Video:
    ID : 310 (0x136)
    Menu ID : 1 (0x1)
    Format : AVC
    Format/Info : Advanced Video Codec
    Format profile : High@L4.0
    Format settings, CABAC : Yes
    Format settings, ReFrames : 4 frames
    Codec ID : 27
    Duration : 3mn 47s
    Bit rate : 5 006 Kbps
    Width : 1 920 pixels
    Height : 1 080 pixels
    Display aspect ratio : 16:9
    Frame rate : 25.000 fps
    Standard : Component
    Color space : YUV
    Chroma subsampling : 4:2:0
    Bit depth : 8 bits
    Scan type : MBAFF
    Scan order : Top Field First
    Bits/(Pixel*Frame) : 0.097
    Stream size : 136 MiB (92%)
    Color primaries : BT.709
    Transfer characteristics : BT.709
    Matrix coefficients : BT.709
    Color range : Limited

    Audio:
    ID : 321 (0x141)
    Menu ID : 1 (0x1)
    Format : AC-3
    Format/Info : Audio Coding 3
    Mode extension : CM (complete main)
    Format settings, Endianness : Big
    Codec ID : 6
    Duration : 3mn 47s
    Bit rate mode : Constant
    Bit rate : 192 Kbps
    Channel(s) : 2 channels
    Channel positions : Front: L R
    Sampling rate : 48.0 KHz
    Bit depth : 16 bits
    Compression mode : Lossy
    Stream size : 5.20 MiB (4%)
    Language : French

    Hidden Content:
    You must reply before you can see the hidden data contained here.
     
    gelison, HenrySC8, bsnl1 and 11 others like this.
  2. MaggieS

    MaggieS Well-Known Member

    Joined:
    Sep 19, 2014
    Messages:
    1,262
    Likes Received:
    83
    tnx u
     
  3. 777josem

    777josem ProRes 1080p LPCM V . I . P. Uploader

    Joined:
    Sep 1, 2014
    Messages:
    3,886
    Likes Received:
    5,480
    :happy:Thank you so much!
     
  4. RAVIXX

    RAVIXX Well-Known Member V . I . P. Uploader

    Joined:
    Feb 20, 2014
    Messages:
    6,596
    Likes Received:
    92,610
    Thank you!
     
  5. mizdot

    mizdot Well-Known Member

    Joined:
    Nov 13, 2014
    Messages:
    3,948
    Likes Received:
    208
    tnx nab
     
  6. multimediafm

    multimediafm Well-Known Member Archiver Donor

    Joined:
    Mar 27, 2014
    Messages:
    19,178
    Likes Received:
    1,916
    Thanks :)
    Kylie Minogue - Can't Get You Out Of My Head (MTV Idol-1080i-Djodjara)-HDMania
     
  7. Joseph

    Joseph Active Member

    Joined:
    Dec 10, 2013
    Messages:
    789
    Likes Received:
    226
    thank you
     
  8. Dreamer

    Dreamer Lana Del Slay V . I . P. Uploader

    Joined:
    Dec 4, 2014
    Messages:
    3,210
    Likes Received:
    11,041
    Thank u
     
  9. TrendMusic

    TrendMusic Well-Known Member

    Joined:
    Oct 7, 2013
    Messages:
    2,224
    Likes Received:
    263
    thanks for Queen KYLIE
     
  10. rhea

    rhea Well-Known Member

    Joined:
    Jan 6, 2014
    Messages:
    11,480
    Likes Received:
    2,207
    thank you so much!
     
  11. adam dark

    adam dark Video Music Lover <3 V . I . P.

    Joined:
    Dec 5, 2013
    Messages:
    2,877
    Likes Received:
    8,151
    thank you so much!
     
  12. nn_rod

    nn_rod Member

    Joined:
    Aug 1, 2014
    Messages:
    601
    Likes Received:
    18
    thank u
     
  13. GPL4EVER

    GPL4EVER Member

    Joined:
    Oct 19, 2013
    Messages:
    351
    Likes Received:
    23
    Thank you for Kylie!
     
  14. Crusha

    Crusha Well-Known Member Capper V . I . P.

    Joined:
    Oct 15, 2014
    Messages:
    2,574
    Likes Received:
    4,159
    thank you :)
     
  15. 江雨燃双鱼

    江雨燃双鱼 Active Member

    Joined:
    Apr 5, 2014
    Messages:
    847
    Likes Received:
    78
  16. RIKI23

    RIKI23 Active Member

    Joined:
    Oct 13, 2013
    Messages:
    718
    Likes Received:
    49
    thanks a lot
     
  17. lifevirgin

    lifevirgin Active Member

    Joined:
    Feb 15, 2014
    Messages:
    594
    Likes Received:
    52
  18. Daydream

    Daydream Active Member

    Joined:
    Mar 1, 2015
    Messages:
    481
    Likes Received:
    31
    Thank you
     
  19. tf135

    tf135 Well-Known Member

    Joined:
    Nov 14, 2014
    Messages:
    4,875
    Likes Received:
    288
    thank you
     
  20. Drewbee87

    Drewbee87 Member

    Joined:
    Oct 13, 2014
    Messages:
    75
    Likes Received:
    3
    Thank you!