Korn - Let The Guilt Go (1080i) HDTV DD5.1 MPEG2-TrollHD

Discussion in 'MUSIC CHOICE' started by rgf72k, Nov 2, 2013.

  1. rgf72k

    rgf72k Founder Staff Member AdMiN Capper Uploader

    Joined:
    Oct 1, 2013
    Messages:
    1,073
    Likes Received:
    16,177
    [​IMG]

    Code:
          Complete name : (Music Video) Korn - Let The Guilt Go 1080i HDTV DD5.1 MPEG2-TrollHD.ts
          Format : MPEG-TS
          File size : 462 MiB
          Duration : 3mn 30s
          Overall bit rate mode : Variable
          Overall bit rate : 18.4 Mbps
      Video #570
          ID : 570 (0x23A)
          Menu ID : 1 (0x1)
          Format : MPEG Video
          Format version : Version 2
          Format profile : [email protected]
          Format settings, BVOP : Yes
          Format settings, Matrix : Custom
          Format settings, GOP : M=3, N=15
          Codec ID : 2
          Duration : 3mn 29s
          Bit rate mode : Variable
          Bit rate : 17.1 Mbps
          Maximum bit rate : 80.0 Mbps
          Width : 1 920 pixels
          Height : 1 080 pixels
          Display aspect ratio : 16:9
          Frame rate : 29.970 fps
          Color space : YUV
          Chroma subsampling : 4:2:0
          Bit depth : 8 bits
          Scan type : Interlaced
          Scan order : Top Field First
          Compression mode : Lossy
          Bits/(Pixel*Frame) : 0.276
          Time code of first frame : 00:00:00;00
          Time code source : Group of pictures header
          Stream size : 429 MiB (93%)
      Audio #569
          ID : 569 (0x239)
          Menu ID : 1 (0x1)
          Format : AC-3
          Format/Info : Audio Coding 3
          Mode extension : CM (complete main)
          Format settings, Endianness : Big
          Codec ID : 129
          Duration : 3mn 29s
          Bit rate mode : Constant
          Bit rate : 384 Kbps
          Channel(s) : 6 channels
          Channel positions : Front: L C R, Side: L R, LFE
          Sampling rate : 48.0 KHz
          Bit depth : 16 bits
          Compression mode : Lossy
          Stream size : 9.61 MiB (2%)
          Language : English
      Text #570-CC1
          ID : 570 (0x23A)-CC1
          Menu ID : 1 (0x1)
          Format : EIA-608
          Muxing mode : A/53 / DTVCC Transport
          Muxing mode, more info : Muxed in Video #1
          Duration : 3mn 29s
          Bit rate mode : Constant
          Stream size : 0.00 Byte (0%)
      Text #570-1
          ID : 570 (0x23A)-1
          Menu ID : 1 (0x1)
          Format : EIA-708
          Muxing mode : A/53 / DTVCC Transport
          Muxing mode, more info : Muxed in Video #1
          Duration : 3mn 29s
          Bit rate mode : Constant
          Stream size : 0.00 Byte (0%)


    Download:
    Hidden Content:
    You must either reply or click 'Like' to see the hidden information contained here.


    Password: sharemania.net


    Capper: TrollHD
     
    arasu123, BetaKsi, Emazing and 4 others like this.
  2. pablo palormo

    pablo palormo Member

    Joined:
    Oct 27, 2013
    Messages:
    177
    Likes Received:
    2
  3. jorge7m

    jorge7m Member

    Joined:
    Sep 27, 2014
    Messages:
    28
    Likes Received:
    0
  4. yonita

    yonita Active Member

    Joined:
    Mar 7, 2016
    Messages:
    460
    Likes Received:
    58
    gracias
     
  5. arasu123

    arasu123 Member

    Joined:
    Aug 8, 2016
    Messages:
    444
    Likes Received:
    14
    jgdfgdg
     
  6. mewmwe

    mewmwe Member

    Joined:
    May 20, 2017
    Messages:
    299
    Likes Received:
    24
    thanks