HDTV Kings of Leon - Landmarks Live in Concert 2017 BISHD 1080i HDTV DD5.1 H.264 CELOBRAZiL-HDMania

Discussion in 'HD Live Performances' started by CELOBRAZiL, Feb 5, 2019.

  1. CELOBRAZiL

    CELOBRAZiL Well-Known Member Capper V . I . P. Donor

    Joined:
    Oct 2, 2013
    Messages:
    6,708
    Likes Received:
    21,586
    Kings of Leon - Landmarks Live in Concert 2017 BISHD 1080i HDTV DD5.1 H.264 CELOBRAZiL-HDMania

    [​IMG]



    Format : MPEG-TS
    File size : 2.74 GiB
    Duration : 52 min 8 s
    Overall bit rate mode : Variable
    Overall bit rate : 7 522 kb/s

    Video
    ID : 1040 (0x410)
    Menu ID : 5142 (0x1416)
    Format : AVC
    Format/Info : Advanced Video Codec
    Format profile : High@L4
    Format settings : CABAC / 4 Ref Frames
    Format settings, CABAC : Yes
    Format settings, RefFrames : 4 frames
    Codec ID : 27
    Duration : 52 min 8 s
    Bit rate : 6 762 kb/s
    Width : 1 920 pixels
    Height : 1 080 pixels
    Display aspect ratio : 16:9
    Frame rate : 29.970 (30000/1001) FPS
    Color space : YUV
    Chroma subsampling : 4:2:0
    Bit depth : 8 bits
    Scan type : MBAFF
    Scan type, store method : Interleaved fields
    Scan order : Top Field First
    Bits/(Pixel*Frame) : 0.109
    Stream size : 2.46 GiB (90%)

    Audio
    ID : 1041 (0x411)
    Menu ID : 5142 (0x1416)
    Format : AC-3
    Format/Info : Audio Coding 3
    Commercial name : Dolby Digital
    Codec ID : 129
    Duration : 52 min 8 s
    Bit rate mode : Constant
    Bit rate : 384 kb/s
    Channel(s) : 6 channels
    Channel layout : L R C LFE Ls Rs
    Sampling rate : 48.0 kHz
    Frame rate : 31.250 FPS (1536 SPF)
    Bit depth : 16 bits
    Compression mode : Lossy
    Stream size : 143 MiB (5%)
    Language : English
    Service kind : Complete Main


    :: ABOUT ::

    Beginning in the 1800s, musicians throughout the South traveled to Beale Street in Memphis to perform their art. The “Memphis in May” celebration has captured this tradition for years, and the Beale Street Music Festival is its kick-off event. Following this tradition, Kings of Leon return to their home state to perform and offer a glimpse into the ways that Memphis and the culture of the entire region have influenced their music.

    Link(s):
    Hidden Content:
    You must either reply or click 'Like' to see the hidden information contained here.
     
    Last edited: Feb 5, 2019
    Kilgore, Pavulon, apl3 and 3 others like this.
  2. Loading...


  3. CELOBRAZiL

    CELOBRAZiL Well-Known Member Capper V . I . P. Donor

    Joined:
    Oct 2, 2013
    Messages:
    6,708
    Likes Received:
    21,586
    :love::love::love:

    I'm uploading to another hosts too! :)
     
  4. CELOBRAZiL

    CELOBRAZiL Well-Known Member Capper V . I . P. Donor

    Joined:
    Oct 2, 2013
    Messages:
    6,708
    Likes Received:
    21,586
    Added links:
    • files.fm
    • zippyshare.com
     
  5. CELOBRAZiL

    CELOBRAZiL Well-Known Member Capper V . I . P. Donor

    Joined:
    Oct 2, 2013
    Messages:
    6,708
    Likes Received:
    21,586
    Added Google Drive links! :)
     
  6. CELOBRAZiL

    CELOBRAZiL Well-Known Member Capper V . I . P. Donor

    Joined:
    Oct 2, 2013
    Messages:
    6,708
    Likes Received:
    21,586
    Added Microsoft One Drive links! :)
     
  7. CELOBRAZiL

    CELOBRAZiL Well-Known Member Capper V . I . P. Donor

    Joined:
    Oct 2, 2013
    Messages:
    6,708
    Likes Received:
    21,586
    Added fex.net links! :)
     
  8. Fabio Barbosa

    Fabio Barbosa Well-Known Member

    Joined:
    Sep 28, 2015
    Messages:
    737
    Likes Received:
    279
    Thanks
     
    CELOBRAZiL likes this.
  9. Adaros

    Adaros Active Member

    Joined:
    Jun 5, 2016
    Messages:
    816
    Likes Received:
    103
    Thanks
     
    CELOBRAZiL likes this.
  10. gybr77

    gybr77 Member

    Joined:
    Dec 6, 2015
    Messages:
    50
    Likes Received:
    7
    thank you !!!
     
    CELOBRAZiL likes this.
  11. Extazy4u2

    Extazy4u2 Well-Known Member

    Joined:
    Jan 26, 2017
    Messages:
    2,792
    Likes Received:
    299
    Thanks
     
    CELOBRAZiL likes this.
  12. Ramon

    Ramon Member

    Joined:
    Feb 26, 2018
    Messages:
    519
    Likes Received:
    18
    obrigado
     
    CELOBRAZiL likes this.