Kiiara - Gloe (Vimeo-1080p-Djodjara)

Discussion in 'Music Videos' started by Djodjara, Nov 5, 2018.

  1. Djodjara

    Djodjara Gwen Fan Capper

    Joined:
    Sep 6, 2014
    Messages:
    992
    Likes Received:
    1,917
    Kiiara - Gloe (Vimeo-1080p-Djodjara)

    [​IMG]
    [​IMG]


    General:
    Format : MPEG-4
    Format profile : Base Media / Version 2
    Codec ID : mp42 (mp42/mp41/isom/avc1)
    File size : 144 MiB
    Duration : 3 min 44 s
    Overall bit rate mode : Variable
    Overall bit rate : 5 391 kb/s
    Encoded date : UTC 2018-09-22 01:06:22
    Tagged date : UTC 2018-09-22 01:06:22

    Video:
    ID : 1
    Format : AVC
    Format/Info : Advanced Video Codec
    Format profile : High@L4
    Format settings : CABAC / 5 Ref Frames
    Format settings, CABAC : Yes
    Format settings, ReFrames : 5 frames
    Codec ID : avc1
    Codec ID/Info : Advanced Video Coding
    Duration : 3 min 44 s
    Bit rate : 5 250 kb/s
    Width : 1 920 pixels
    Height : 1 080 pixels
    Display aspect ratio : 16:9
    Frame rate mode : Constant
    Frame rate : 23.976 (24000/1001) FPS
    Color space : YUV
    Chroma subsampling : 4:2:0
    Bit depth : 8 bits
    Scan type : Progressive
    Bits/(Pixel*Frame) : 0.106
    Stream size : 141 MiB (97%)
    Writing library : x264 core 155 r0+2917M 0a84d98

    Audio:
    ID : 2
    Format : AAC
    Format/Info : Advanced Audio Codec
    Format profile : LC
    Codec ID : mp4a-40-2
    Duration : 3 min 44 s
    Bit rate mode : Variable
    Bit rate : 137 kb/s
    Channel(s) : 2 channels
    Channel positions : Front: L R
    Sampling rate : 48.0 kHz
    Frame rate : 46.875 FPS (1024 SPF)
    Compression mode : Lossy
    Stream size : 3.67 MiB (3%)
    Encoded date : UTC 2018-09-22 01:06:22
    Tagged date : UTC 2018-09-22 01:06:22
    Hidden Content:
    You must reply before you can see the hidden data contained here.
     
    tf135 likes this.
  2. carlos024333

    carlos024333 Active Member

    Joined:
    Mar 28, 2016
    Messages:
    787
    Likes Received:
    32
  3. tf135

    tf135 Well-Known Member

    Joined:
    Nov 14, 2014
    Messages:
    3,495
    Likes Received:
    200
    thanks
     
  4. tn5656

    tn5656 Well-Known Member

    Joined:
    Jan 20, 2017
    Messages:
    3,767
    Likes Received:
    132
    thanks a lot