WEB-RiP Kesha丨Orca Song (Columbia Presents)[AAC-1080P-Master-WDRB_GSZMZ]

Discussion in 'Documentaries' started by WDRB_GSZMZ, Oct 3, 2018.

  1. WDRB_GSZMZ

    WDRB_GSZMZ Active Member

    Joined:
    Mar 23, 2018
    Messages:
    347
    Likes Received:
    87
    [​IMG]
    Kesha丨Orca Song.mkv
    容器:Matroska
    总码率:10.1 Mb/s
    大小:347 MiB
    时长:4 min 47 s 811 ms

    视频(1):AVC
    Profile:High@L4
    码率:10.3 Mb/s
    文件大小:343 MiB (99%)
    分辨率:1920x1080
    画面比例:16:9(1.778)
    像素宽高比:1.000
    帧率:23.976 (23976/1000) FPS
    色彩空间:YUV
    色度抽样:4:2:0
    位深度:8 bits
    扫描方式:逐行扫描
    总帧数:6668
    编码库:x264 core 148
    编码设置:cabac=1 / ref=5 / deblock=1:0:0 / analyse=0x3:0x113 / me=hex / subme=8 / psy=0 / mixed_ref=1 / me_range=16 / chroma_me=1 / trellis=2 / 8x8dct=1 / cqm=0 / deadzone=21,11 / fast_pskip=1 / chroma_qp_offset=0 / threads=34 / lookahead_threads=5 / sliced_threads=0 / nr=0 / decimate=1 / interlaced=0 / bluray_compat=0 / constrained_intra=0 / bframes=3 / b_pyramid=2 / b_adapt=1 / b_bias=0 / direct=3 / weightb=1 / open_gop=0 / weightp=2 / keyint=48 / keyint_min=25 / scenecut=0 / intra_refresh=0 / rc_lookahead=48 / rc=crf / mbtree=1 / crf=18.0 / qcomp=0.60 / qpmin=0 / qpmax=69 / qpstep=4 / vbv_maxrate=100000 / vbv_bufsize=200000 / crf_max=0.0 / nal_hrd=none / filler=0 / ip_ratio=1.40 / aq=2:1.00

    音频(2):AAC
    大小:4.31 MiB (1%)
    码率:126 kb/s
    采样率:44.1 kHz
    声道数:2

    ====详细信息====
    ID : 1
    Format : AVC
    Format/Info : Advanced Video Codec
    Format profile : High@L4
    Format settings, CABAC : Yes
    Format settings, ReFrames : 5 frames
    Codec ID : V_MPEG4/ISO/AVC
    Duration : 4 min 38 s
    Bit rate : 10.3 Mb/s
    Width : 1 920 pixels
    Height : 1 080 pixels
    Display aspect ratio : 16:9
    Frame rate mode : Constant
    Frame rate : 23.976 (23976/1000) FPS
    Color space : YUV
    Chroma subsampling : 4:2:0
    Bit depth : 8 bits
    Scan type : Progressive
    Bits/(Pixel*Frame) : 0.208
    Stream size : 343 MiB (99%)
    Writing library : x264 core 148
    Encoding settings : cabac=1 / ref=5 / deblock=1:0:0 / analyse=0x3:0x113 / me=hex / subme=8 / psy=0 / mixed_ref=1 / me_range=16 / chroma_me=1 / trellis=2 / 8x8dct=1 / cqm=0 / deadzone=21,11 / fast_pskip=1 / chroma_qp_offset=0 / threads=34 / lookahead_threads=5 / sliced_threads=0 / nr=0 / decimate=1 / interlaced=0 / bluray_compat=0 / constrained_intra=0 / bframes=3 / b_pyramid=2 / b_adapt=1 / b_bias=0 / direct=3 / weightb=1 / open_gop=0 / weightp=2 / keyint=48 / keyint_min=25 / scenecut=0 / intra_refresh=0 / rc_lookahead=48 / rc=crf / mbtree=1 / crf=18.0 / qcomp=0.60 / qpmin=0 / qpmax=69 / qpstep=4 / vbv_maxrate=100000 / vbv_bufsize=200000 / crf_max=0.0 / nal_hrd=none / filler=0 / ip_ratio=1.40 / aq=2:1.00
    Language : English
    Default : Yes
    Forced : No
    Color range : Limited
    Color primaries : BT.709
    Transfer characteristics : BT.709
    Matrix coefficients : BT.709

    ID : 2
    Format : AAC
    Format/Info : Advanced Audio Codec
    Format profile : LC
    Codec ID : A_AAC
    Duration : 4 min 47 s
    Bit rate : 126 kb/s
    Channel(s) : 2 channels
    Channel positions : Front: L R
    Sampling rate : 44.1 kHz
    Frame rate : 43.066 FPS (1024 spf)
    Compression mode : Lossy
    Delay relative to video : -22 ms
    Stream size : 4.31 MiB (1%)
    Language : English
    Default : Yes
    Forced : No
    Sever:Baidu&DBREE
    Hidden Content:
    You must reply before you can see the hidden data contained here.
     
  2. Loading...


  3. Marcos Sannin

    Marcos Sannin Well-Known Member

    Joined:
    Dec 11, 2014
    Messages:
    1,032
    Likes Received:
    854
  4. junior.ca

    junior.ca Well-Known Member

    Joined:
    Jun 1, 2014
    Messages:
    1,906
    Likes Received:
    99
    OBRIGADO
     
  5. junior.ca

    junior.ca Well-Known Member

    Joined:
    Jun 1, 2014
    Messages:
    1,906
    Likes Received:
    99
    GENTE ALGUEM ME ENSINA A BAIXAR NO PN BAIDU? NÃO COSIGO
     
  6. MigaLouka

    MigaLouka Member

    Joined:
    Jan 5, 2018
    Messages:
    184
    Likes Received:
    17
    thanks
     
  7. Tiago

    Tiago Well-Known Member

    Joined:
    Dec 7, 2013
    Messages:
    2,346
    Likes Received:
    96
    thanks
     
  8. jayananda

    jayananda Well-Known Member

    Joined:
    Jan 14, 2015
    Messages:
    1,218
    Likes Received:
    298
    Thank You
     
  9. lightroom

    lightroom Member

    Joined:
    Apr 10, 2018
    Messages:
    192
    Likes Received:
    2
    thanks
     
  10. Bruno77

    Bruno77 Well-Known Member

    Joined:
    Sep 12, 2016
    Messages:
    2,032
    Likes Received:
    40
    Thanks
     
  11. markjackson

    markjackson Active Member

    Joined:
    Jan 8, 2014
    Messages:
    838
    Likes Received:
    48
    thank you!
     
  12. nino.navy

    nino.navy Well-Known Member

    Joined:
    May 30, 2014
    Messages:
    3,218
    Likes Received:
    190
    thanks a lot