Keri Hilson - I Like (Deluxe Music HD-1080i-DD2.0)-Olgold

Discussion in 'DELUXE MUSIC HD' started by Olgold, Aug 24, 2015.

  1. Olgold

    Olgold Well-Known Member Capper

    Joined:
    Aug 19, 2015
    Messages:
    386
    Likes Received:
    1,332
    [​IMG]
    General
    Format : MPEG-TS
    File size : 143 MiB
    Duration : 3mn 37s
    Overall bit rate mode : Variable
    Overall bit rate : 5 506 Kbps

    Video
    Format : AVC
    Format/Info : Advanced Video Codec
    Format profile : [email protected]
    Format settings, CABAC : Yes
    Duration : 3mn 35s
    Bit rate : 4 846 Kbps
    Width : 1 280 pixels
    Height : 1 080 pixels
    Display aspect ratio : 16:9
    Frame rate : 25.000 fps
    Standard : Component
    Color space : YUV
    Chroma subsampling : 4:2:0
    Bit depth : 8 bits
    Scan type : Interlaced
    Scan order : Top Field First
    Bits/(Pixel*Frame) : 0.140
    Stream size : 125 MiB (87%)
    Color range : Limited

    Audio
    Format : AC-3
    Format/Info : Audio Coding 3
    Mode extension : CM (complete main)
    Format settings, Endianness : Big
    Duration : 3mn 37s
    Bit rate mode : Constant
    Bit rate : 384 Kbps
    Channel(s) : 2 channels
    Channel positions : Front: L R
    Sampling rate : 48.0 KHz
    Compression mode : Lossy
    Delay relative to video : -6ms
    Stream size : 9.94 MiB (7%)
    Language : German
    Language, more info : Clean effects
    Hidden Content:
    You must reply before you can see the hidden data contained here.
     
  2. santa321

    santa321 Active Member

    Joined:
    Dec 7, 2013
    Messages:
    1,194
    Likes Received:
    22
    thank you
     
  3. Dreamer

    Dreamer Well-Known Member Capper Uploader

    Joined:
    Dec 4, 2014
    Messages:
    2,293
    Likes Received:
    2,138
    Thank you so much
     
  4. Crusha

    Crusha Well-Known Member Capper

    Joined:
    Oct 15, 2014
    Messages:
    2,350
    Likes Received:
    2,176
    thank you
     
  5. Zatimi

    Zatimi Active Member

    Joined:
    Aug 27, 2014
    Messages:
    604
    Likes Received:
    67
    thank you
     
  6. rhea

    rhea Well-Known Member

    Joined:
    Jan 6, 2014
    Messages:
    5,406
    Likes Received:
    265
    thank you so much :)
     
  7. ddXogo

    ddXogo Member

    Joined:
    May 26, 2014
    Messages:
    253
    Likes Received:
    11
    HD - Good !!!
     
  8. lukierrywhere

    lukierrywhere Member

    Joined:
    May 1, 2015
    Messages:
    157
    Likes Received:
    1
    thank you
     
  9. rober18

    rober18 Member

    Joined:
    Sep 29, 2015
    Messages:
    384
    Likes Received:
    18
    thank youu
     
  10. GHN

    GHN Member

    Joined:
    Oct 27, 2014
    Messages:
    412
    Likes Received:
    10
    Thank you
     
  11. Colby

    Colby Member

    Joined:
    Oct 31, 2015
    Messages:
    118
    Likes Received:
    1
    thanks
     
  12. TrendMusic

    TrendMusic Well-Known Member

    Joined:
    Oct 7, 2013
    Messages:
    1,024
    Likes Received:
    53
  13. adam dark

    adam dark Well-Known Member

    Joined:
    Dec 5, 2013
    Messages:
    2,536
    Likes Received:
    3,977
  14. mcslimshady

    mcslimshady Member

    Joined:
    Jun 20, 2016
    Messages:
    817
    Likes Received:
    9
  15. MCTR

    MCTR Member

    Joined:
    Feb 23, 2014
    Messages:
    280
    Likes Received:
    23
    thank you so much
     
  16. andy80

    andy80 Member

    Joined:
    Sep 25, 2016
    Messages:
    59
    Likes Received:
    7
    thank you so much! haha
     
  17. Tommyboy

    Tommyboy Member

    Joined:
    Oct 23, 2016
    Messages:
    458
    Likes Received:
    14
    Thanks
     
  18. Ponius

    Ponius Member

    Joined:
    Dec 19, 2016
    Messages:
    339
    Likes Received:
    4
    Danke
     
  19. D3mon86

    D3mon86 Member

    Joined:
    Dec 19, 2016
    Messages:
    447
    Likes Received:
    2
    thanks