Keri Hilson - I Like (Deluxe Music HD-1080i-DD2.0)-Olgold

Discussion in 'DELUXE MUSIC HD' started by Olgold, Aug 24, 2015.

  1. Olgold

    Olgold Well-Known Member Capper

    Joined:
    Aug 19, 2015
    Messages:
    436
    Likes Received:
    1,677
    [​IMG]
    General
    Format : MPEG-TS
    File size : 143 MiB
    Duration : 3mn 37s
    Overall bit rate mode : Variable
    Overall bit rate : 5 506 Kbps

    Video
    Format : AVC
    Format/Info : Advanced Video Codec
    Format profile : [email protected]
    Format settings, CABAC : Yes
    Duration : 3mn 35s
    Bit rate : 4 846 Kbps
    Width : 1 280 pixels
    Height : 1 080 pixels
    Display aspect ratio : 16:9
    Frame rate : 25.000 fps
    Standard : Component
    Color space : YUV
    Chroma subsampling : 4:2:0
    Bit depth : 8 bits
    Scan type : Interlaced
    Scan order : Top Field First
    Bits/(Pixel*Frame) : 0.140
    Stream size : 125 MiB (87%)
    Color range : Limited

    Audio
    Format : AC-3
    Format/Info : Audio Coding 3
    Mode extension : CM (complete main)
    Format settings, Endianness : Big
    Duration : 3mn 37s
    Bit rate mode : Constant
    Bit rate : 384 Kbps
    Channel(s) : 2 channels
    Channel positions : Front: L R
    Sampling rate : 48.0 KHz
    Compression mode : Lossy
    Delay relative to video : -6ms
    Stream size : 9.94 MiB (7%)
    Language : German
    Language, more info : Clean effects
    Hidden Content:
    You must reply before you can see the hidden data contained here.
     
    curg, rhea, Dreamer and 2 others like this.
  2. santa321

    santa321 Well-Known Member

    Joined:
    Dec 7, 2013
    Messages:
    1,447
    Likes Received:
    48
    thank you
     
  3. Dreamer

    Dreamer Lana Del Rey ♥ Halsey Capper V . I . P. Uploader

    Joined:
    Dec 4, 2014
    Messages:
    2,802
    Likes Received:
    3,921
    Thank you so much
     
  4. Crusha

    Crusha Well-Known Member Capper V . I . P.

    Joined:
    Oct 15, 2014
    Messages:
    2,355
    Likes Received:
    2,522
    thank you
     
  5. Zatimi

    Zatimi Active Member

    Joined:
    Aug 27, 2014
    Messages:
    719
    Likes Received:
    131
    thank you
     
  6. rhea

    rhea Well-Known Member

    Joined:
    Jan 6, 2014
    Messages:
    6,607
    Likes Received:
    674
    thank you so much :)
     
  7. ddXogo

    ddXogo Member

    Joined:
    May 26, 2014
    Messages:
    311
    Likes Received:
    15
    HD - Good !!!
     
  8. lukierrywhere

    lukierrywhere Member

    Joined:
    May 1, 2015
    Messages:
    170
    Likes Received:
    4
    thank you
     
  9. rober18

    rober18 Member

    Joined:
    Sep 29, 2015
    Messages:
    429
    Likes Received:
    25
    thank youu
     
  10. GHN

    GHN Member

    Joined:
    Oct 27, 2014
    Messages:
    481
    Likes Received:
    10
    Thank you
     
  11. Colby

    Colby Member

    Joined:
    Oct 31, 2015
    Messages:
    125
    Likes Received:
    1
    thanks
     
  12. TrendMusic

    TrendMusic Well-Known Member

    Joined:
    Oct 7, 2013
    Messages:
    1,338
    Likes Received:
    88
  13. adam dark

    adam dark Video Music Lover <3 V . I . P.

    Joined:
    Dec 5, 2013
    Messages:
    2,601
    Likes Received:
    4,779
  14. mcslimshady

    mcslimshady Well-Known Member

    Joined:
    Jun 20, 2016
    Messages:
    1,149
    Likes Received:
    29
  15. MCTR

    MCTR Active Member

    Joined:
    Feb 23, 2014
    Messages:
    295
    Likes Received:
    40
    thank you so much
     
  16. andy80

    andy80 Member

    Joined:
    Sep 25, 2016
    Messages:
    59
    Likes Received:
    8
    thank you so much! haha
     
  17. Tommyboy

    Tommyboy Active Member

    Joined:
    Oct 23, 2016
    Messages:
    667
    Likes Received:
    27
    Thanks
     
  18. Ponius

    Ponius Member

    Joined:
    Dec 19, 2016
    Messages:
    408
    Likes Received:
    12
    Danke
     
  19. D3mon86

    D3mon86 Member

    Joined:
    Dec 19, 2016
    Messages:
    461
    Likes Received:
    5
    thanks
     
  20. curg

    curg Active Member

    Joined:
    Dec 6, 2013
    Messages:
    868
    Likes Received:
    33
    thank you