Kelly Clarkson - Since U Been Gone (Live Jay Leno 2004.11.30)

Discussion in 'SD Live Performances' started by 777josem, Sep 26, 2015.

  1. 777josem

    777josem ProRes 1080p LPCM

    Joined:
    Sep 1, 2014
    Messages:
    3,788
    Likes Received:
    3,639
    [​IMG]
    [​IMG]
    [​IMG]
    [​IMG]
    Format : MPEG-PS
    File size : 138 MiB
    Duration : 3mn 15s
    Overall bit rate mode : Variable
    Overall bit rate : 5 934 Kbps

    Video
    ID : 224 (0xE0)
    Format : MPEG Video
    Format version : Version 2
    Format profile : Main@Main
    Format settings, BVOP : Yes
    Format settings, Matrix : Custom
    Format settings, GOP : M=3, N=15
    Duration : 3mn 15s
    Bit rate mode : Variable
    Bit rate : 5 432 Kbps
    Maximum bit rate : 7 600 Kbps
    Width : 720 pixels
    Height : 480 pixels
    Display aspect ratio : 16:9
    Frame rate : 29.970 fps
    Standard : NTSC
    Color space : YUV
    Chroma subsampling : 4:2:0
    Bit depth : 8 bits
    Scan type : Progressive
    Scan order : Top Field First
    Compression mode : Lossy
    Bits/(Pixel*Frame) : 0.524
    Time code of first frame : 01:00:00:00
    Time code source : Group of pictures header
    GOP, Open/Closed : Open
    GOP, Open/Closed of first frame : Closed
    Stream size : 126 MiB (92%)

    Audio
    ID : 189 (0xBD)-128 (0x80)
    Format : AC-3
    Format/Info : Audio Coding 3
    Format profile : Dolby Digital
    Mode extension : CM (complete main)
    Format settings, Endianness : Big
    Muxing mode : DVD-Video
    Duration : 3mn 15s
    Bit rate mode : Constant
    Bit rate : 384 Kbps
    Channel(s) : 2 channels
    Channel positions : Front: L R
    Sampling rate : 48.0 KHz
    Compression mode : Lossy
    Delay relative to video : -424ms
    Stream size : 8.93 MiB (6%)
    Hidden Content:
    You must reply before you can see the hidden data contained here.
     
    M!lad, curg and darksider like this.
  2. Loading...


  3. Arnaud

    Arnaud Member

    Joined:
    Oct 9, 2014
    Messages:
    92
    Likes Received:
    13
    This is NTSC DVD (720x480) and not 720p
    Encoded from HDTV (16:9)
     
  4. Cesar

    Cesar Member

    Joined:
    Nov 11, 2013
    Messages:
    469
    Likes Received:
    16
    Thank you
     
  5. adam dark

    adam dark Video Music Lover <3 V . I . P.

    Joined:
    Dec 5, 2013
    Messages:
    2,681
    Likes Received:
    5,758
    thank you!
     
  6. 777josem

    777josem ProRes 1080p LPCM

    Joined:
    Sep 1, 2014
    Messages:
    3,788
    Likes Received:
    3,639
    Thanks!:)
     
  7. MaggieS

    MaggieS Well-Known Member

    Joined:
    Sep 19, 2014
    Messages:
    1,154
    Likes Received:
    61
    TNX U
     
  8. alex

    alex Well-Known Member

    Joined:
    Nov 21, 2013
    Messages:
    4,597
    Likes Received:
    403
    Thank you
     
  9. darksider

    darksider Member

    Joined:
    Nov 7, 2015
    Messages:
    294
    Likes Received:
    13
  10. multimediafm

    multimediafm Well-Known Member Donor

    Joined:
    Mar 27, 2014
    Messages:
    13,498
    Likes Received:
    1,063
    Thanks :)
    Kelly Clarkson - Since U Been Gone (Live Jay Leno 2004.11.30)
     
  11. disneyrussianmusic

    disneyrussianmusic Well-Known Member

    Joined:
    Nov 9, 2015
    Messages:
    434
    Likes Received:
    305
  12. brianvip

    brianvip Active Member

    Joined:
    Oct 2, 2014
    Messages:
    800
    Likes Received:
    35
    thank you
     
  13. andreamonger

    andreamonger Well-Known Member

    Joined:
    May 16, 2015
    Messages:
    1,410
    Likes Received:
    231
    THANKS, SHE LOOKS GREAT
     
  14. John

    John Member

    Joined:
    Oct 30, 2013
    Messages:
    501
    Likes Received:
    5
    thank you
     
  15. curg

    curg Well-Known Member

    Joined:
    Dec 6, 2013
    Messages:
    1,181
    Likes Received:
    36
    thank you
     
  16. Snorom6

    Snorom6 Well-Known Member V . I . P. Uploader

    Joined:
    Dec 17, 2015
    Messages:
    4,246
    Likes Received:
    6,223
  17. JUNINHOSZ

    JUNINHOSZ Well-Known Member

    Joined:
    May 23, 2014
    Messages:
    2,051
    Likes Received:
    58
    amazing, thanks!
     
  18. ana_id

    ana_id Member

    Joined:
    Aug 21, 2014
    Messages:
    32
    Likes Received:
    0
    thanks!
     
  19. d1d2d3d5d8

    d1d2d3d5d8 Member

    Joined:
    May 20, 2016
    Messages:
    116
    Likes Received:
    6
  20. DGSN

    DGSN Member

    Joined:
    Aug 2, 2016
    Messages:
    129
    Likes Received:
    7
    Thank You!
     
  21. bonny

    bonny Well-Known Member

    Joined:
    Jun 7, 2016
    Messages:
    1,642
    Likes Received:
    75
    thanks