HDTV Kelly Clarkson, Pentatonix and Sheila E. - Higher Love (Live at Billboard Music Awards 2020) 1080i

Discussion in 'HD Live Performances' started by Light88, Oct 17, 2020.

  1. Light88

    Light88 Active Member

    Joined:
    Jun 3, 2019
    Messages:
    69
    Likes Received:
    160
    [​IMG]

    Original video by ilya2129 :blush:
    I just splitted this performance from it

    Media Info
    General
    Format : MPEG-TS
    File size : 417 MiB
    Duration : 3 min 34 s
    Overall bit rate mode : Variable
    Overall bit rate : 16.3 Mb/s
    Movie name : ACCESS HOLLY 6288
    Law rating : TV-14 (DL)

    Video
    ID : 256 (0x100)
    Menu ID : 1 (0x1)
    Format : MPEG Video
    Format version : Version 2
    Format profile : Main@High
    Format settings : CustomMatrix / BVOP
    Format settings, BVOP : Yes
    Format settings, Matrix : Custom
    Format settings, GOP : Variable
    Format settings, picture st : Frame
    Codec ID : 2
    Duration : 3 min 34 s
    Bit rate mode : Variable
    Bit rate : 14.9 Mb/s
    Maximum bit rate : 24.0 Mb/s
    Width : 1 920 pixels
    Height : 1 080 pixels
    Display aspect ratio : 16:9
    Active Format Description : Full frame 16:9 image
    Frame rate : 29.970 (30000/1001) FPS
    Color space : YUV
    Chroma subsampling : 4:2:0
    Bit depth : 8 bits
    Scan type : Interlaced
    Scan order : Top Field First
    Compression mode : Lossy
    Bits/(Pixel*Frame) : 0.240
    Time code of first frame : 00:00:00;00
    Time code source : Group of pictures header
    GOP, Open/Closed : Open
    Stream size : 382 MiB (91%)

    Audio
    ID : 257 (0x101)
    Menu ID : 1 (0x1)
    Format : AC-3
    Format/Info : Audio Coding 3
    Commercial name : Dolby Digital
    Codec ID : 129
    Duration : 3 min 34 s
    Bit rate mode : Constant
    Bit rate : 384 kb/s
    Channel(s) : 6 channels
    Channel layout : L R C LFE Ls Rs
    Sampling rate : 48.0 kHz
    Frame rate : 31.250 FPS (1536 SPF)
    Compression mode : Lossy
    Delay relative to video : 89 ms
    Stream size : 9.83 MiB (2%)
    Language : English
    Service kind : Complete Main

    Download
    Hidden Content:
    You must either reply or click 'Like' to see the hidden information contained here.
     
    felcor89, rhea, kcfan25 and 6 others like this.
  2. Loading...


  3. mvlmoraes

    mvlmoraes Well-Known Member Donor

    Joined:
    Nov 22, 2013
    Messages:
    4,258
    Likes Received:
    698
  4. Nickyhin

    Nickyhin Member

    Joined:
    Nov 20, 2017
    Messages:
    41
    Likes Received:
    5
    thank you for Kelly!
     
  5. memenome

    memenome Active Member

    Joined:
    Nov 20, 2015
    Messages:
    751
    Likes Received:
    86
    Thanks
     
  6. Bruno

    Bruno Well-Known Member

    Joined:
    Nov 3, 2013
    Messages:
    2,898
    Likes Received:
    281
    many thx for this
     
  7. mandlasz

    mandlasz Well-Known Member

    Joined:
    Sep 15, 2018
    Messages:
    1,155
    Likes Received:
    154
    R&B/Soul
     
  8. Antonio Barros

    Antonio Barros Well-Known Member

    Joined:
    Nov 14, 2013
    Messages:
    1,850
    Likes Received:
    434
    thanxxxxxxxxx
     
  9. digimaze

    digimaze Well-Known Member

    Joined:
    Feb 11, 2015
    Messages:
    2,472
    Likes Received:
    216
    thanks
     
  10. gisele155

    gisele155 Member

    Joined:
    Jun 18, 2018
    Messages:
    560
    Likes Received:
    23
    obrigada
     
  11. peny20

    peny20 Well-Known Member

    Joined:
    Oct 23, 2013
    Messages:
    3,499
    Likes Received:
    146
    Thanks
     
  12. slapatologist

    slapatologist Well-Known Member

    Joined:
    Jan 30, 2017
    Messages:
    1,053
    Likes Received:
    323
  13. rhea

    rhea Well-Known Member

    Joined:
    Jan 6, 2014
    Messages:
    11,188
    Likes Received:
    2,148
    thank you
     
  14. gleissoncoelho

    gleissoncoelho Active Member

    Joined:
    Aug 29, 2016
    Messages:
    516
    Likes Received:
    138
    thanks!!!
     
  15. Gonzalo

    Gonzalo Well-Known Member

    Joined:
    Sep 22, 2014
    Messages:
    1,502
    Likes Received:
    52
    Gracias