CC Kelly Clarkson - Invincible M3HD 1080i HDTV DD5.1 MPEG2-AmazonBoy [CC] {Free Logo}

Discussion in 'M3 HD' started by CELOBRAZiL, Oct 4, 2016.

  1. CELOBRAZiL

    CELOBRAZiL Well-Known Member Capper V . I . P. Donor

    Joined:
    Oct 2, 2013
    Messages:
    2,519
    Likes Received:
    7,045
    Kelly Clarkson - Invincible M3HD 1080i HDTV DD5.1 MPEG2-AmazonBoy [CC] {Free Logo}

    [​IMG]


    Format : MPEG-TS
    File size : 406 MiB
    Duration : 3mn 55s
    Overall bit rate mode : Variable
    Overall bit rate : 14.4 Mbps

    Video
    ID : 3041 (0xBE1)
    Menu ID : 1 (0x1)
    Format : MPEG Video
    Format version : Version 2
    Format profile : [email protected]
    Format settings, BVOP : Yes
    Format settings, Matrix : Custom
    Format settings, GOP : M=3, N=30
    Codec ID : 2
    Duration : 3mn 55s
    Bit rate mode : Variable
    Bit rate : 13.3 Mbps
    Maximum bit rate : 24.0 Mbps
    Width : 1 920 pixels
    Height : 1 080 pixels
    Display aspect ratio : 16:9
    Frame rate : 29.970 fps
    Color space : YUV
    Chroma subsampling : 4:2:0
    Bit depth : 8 bits
    Compression mode : Lossy
    Bits/(Pixel*Frame) : 0.215
    Time code of first frame : 00:00:00;00
    Time code source : Group of pictures header
    GOP, Open/Closed : Open
    Stream size : 374 MiB (92%)
    Writing library : (dvd5: Mar 19 2015)

    Audio
    ID : 3042 (0xBE2)
    Menu ID : 1 (0x1)
    Format : AC-3
    Format/Info : Audio Coding 3
    Mode extension : CM (complete main)
    Format settings, Endianness : Big
    Codec ID : 129
    Duration : 3mn 55s
    Bit rate mode : Constant
    Bit rate : 384 Kbps
    Channel(s) : 6 channels
    Channel positions : Front: L C R, Side: L R, LFE
    Sampling rate : 48.0 KHz
    Bit depth : 16 bits
    Compression mode : Lossy
    Stream size : 10.8 MiB (3%)
    Language : English

    Text #1
    ID : 3041 (0xBE1)-CC1
    Menu ID : 1 (0x1)
    Format : EIA-608
    Muxing mode : A/53 / DTVCC Transport
    Muxing mode, more info : Muxed in Video #1
    Duration : 3mn 55s
    Bit rate mode : Constant
    Stream size : 0.00 Byte (0%)

    Text #2
    ID : 3041 (0xBE1)-1
    Menu ID : 1 (0x1)
    Format : EIA-708
    Muxing mode : A/53 / DTVCC Transport
    Muxing mode, more info : Muxed in Video #1
    Duration : 3mn 55s
    Bit rate mode : Constant
    Stream size : 0.00 Byte (0%)

    Link(s):
    Hidden Content:
    You must either reply or click 'Like' to see the hidden information contained here.
     
    d1d2d3d5d8 and darksider like this.
  2. CristianMatias

    CristianMatias Member

    Joined:
    Sep 17, 2016
    Messages:
    580
    Likes Received:
    17
    Kelly Clarkson
     
  3. MCTR

    MCTR Active Member

    Joined:
    Feb 23, 2014
    Messages:
    290
    Likes Received:
    31
    thanks