Kelly Clarkson - Behind These Hazel Eyes (MHD-1080i-DD2.0)

Discussion in 'MHD' started by KallumLavigne, Jan 11, 2014.

  1. KallumLavigne

    KallumLavigne Well-Known Member

    Joined:
    Nov 18, 2013
    Messages:
    675
    Likes Received:
    1,142
    [​IMG]

    Code:
    Complete name                  : Kelly Clarkson Behind These Hazel Eyes.ts
    Format                        : MPEG-TS
    File size                      : 387 MiB
    Duration                      : 3mn 15s
    Overall bit rate              : 16.5 Mbps
    
    Video
    ID                            : 2048 (0x800)
    Menu ID                        : 1 (0x1)
    Format                        : MPEG Video
    Codec ID                      : 2
    Duration                      : 3mn 15s
    Bit rate mode                  : Variable
    Bit rate                      : 15.3 Mbps
    Maximum bit rate              : 38.8 Mbps
    Width                          : 1 920 pixels
    Height                        : 1 080 pixels
    Display aspect ratio          : 16:9
    Frame rate                    : 29.970 fps
    Color space                    : YUV
    Chroma subsampling            : 4:2:0
    Bit depth                      : 8 bits
    Scan type                      : Interlaced
    Scan order                    : Bottom Field First
    Compression mode              : Lossy
    Bits/(Pixel*Frame)            : 0.247
    Stream size                    : 358 MiB (93%)
    
    Audio
    ID                            : 2049 (0x801)
    Menu ID                        : 1 (0x1)
    Format                        : AC-3
    Format/Info                    : Audio Coding 3
    Mode extension                : CM (complete main)
    Format settings, Endianness    : Big
    Codec ID                      : 129
    Duration                      : 3mn 15s
    Bit rate mode                  : Constant
    Bit rate                      : 384 Kbps
    Channel count                  : 2 channels
    Channel positions              : Front: L R
    Sampling rate                  : 48.0 KHz
    Bit depth                      : 16 bits
    Compression mode              : Lossy
    Stream size                    : 8.96 MiB (2%)
    Hidden Content:
    You must reply before you can see the hidden data contained here.
     
    kaaaa44, brit, lebartt and 1 other person like this.
  2. Loading...


  3. Kensing

    Kensing Member

    Joined:
    Dec 27, 2013
    Messages:
    251
    Likes Received:
    0
    Thanks
     
  4. Chris

    Chris Member

    Joined:
    Oct 19, 2013
    Messages:
    500
    Likes Received:
    15
    Thank you
     
  5. xyzabc

    xyzabc Member

    Joined:
    Jan 13, 2014
    Messages:
    38
    Likes Received:
    0
    Thank you!
     
  6. ryualviss

    ryualviss Active Member

    Joined:
    Jan 6, 2014
    Messages:
    151
    Likes Received:
    452
    thanks, this' rare one :)
     
  7. adam dark

    adam dark Well-Known Member

    Joined:
    Dec 5, 2013
    Messages:
    2,367
    Likes Received:
    3,599
  8. brit

    brit Member

    Joined:
    Dec 14, 2013
    Messages:
    255
    Likes Received:
    3
    Thanks
     
  9. sori

    sori Member

    Joined:
    Oct 22, 2013
    Messages:
    106
    Likes Received:
    0
    Thank you
     
  10. diego_123

    diego_123 Member

    Joined:
    Dec 15, 2013
    Messages:
    489
    Likes Received:
    9
    thanks.
     
  11. slill

    slill Member

    Joined:
    Jul 25, 2014
    Messages:
    890
    Likes Received:
    7
    thanks for sharing
     
  12. iqson

    iqson Active Member

    Joined:
    Dec 30, 2013
    Messages:
    185
    Likes Received:
    63
    Thank you so much!!!
     
  13. Hank

    Hank Member

    Joined:
    Nov 15, 2014
    Messages:
    156
    Likes Received:
    5
    Thank you!
     
  14. hapiny

    hapiny Member

    Joined:
    Nov 24, 2014
    Messages:
    463
    Likes Received:
    6
    thanks for sharing
     
  15. 777josem

    777josem Well-Known Member Uploader

    Joined:
    Sep 1, 2014
    Messages:
    2,341
    Likes Received:
    1,253
    thanks!
     
  16. MaggieS

    MaggieS Active Member

    Joined:
    Sep 19, 2014
    Messages:
    922
    Likes Received:
    33
    its so cool:)
     
  17. kaaaa44

    kaaaa44 New Member

    Joined:
    Dec 13, 2014
    Messages:
    5
    Likes Received:
    0
    thanks
     
  18. Vinny

    Vinny Active Member

    Joined:
    Dec 26, 2013
    Messages:
    1,720
    Likes Received:
    7
    Thanks! ;D
     
  19. Lil B

    Lil B New Member

    Joined:
    Jul 16, 2015
    Messages:
    2
    Likes Received:
    0
    Cool! I have this on DVD, but obviously, an HD version is much better :)
     
  20. Josue Carminatti

    Josue Carminatti Member

    Joined:
    Jul 19, 2015
    Messages:
    251
    Likes Received:
    5
    thanks a lot
     
  21. Josue Carminatti

    Josue Carminatti Member

    Joined:
    Jul 19, 2015
    Messages:
    251
    Likes Received:
    5
    ops link dead :(