FEED Kelly Clarkson - 3X performances - The Today Show 6-8-2018 1080i h264 22mbps DTSHDMA 5.1-ALANiS

Discussion in 'HD Live Performances' started by KaiKawaii, Jun 13, 2018 at 11:49 AM.

  1. KaiKawaii

    KaiKawaii Well-Known Member Uploader

    Joined:
    Jun 1, 2017
    Messages:
    440
    Likes Received:
    550
    [​IMG] [​IMG]

    [​IMG]
    Code:
    General
    Unique ID                      : 271168084058756031865545000089749397210 (0xCC0112C41F48B6A2ED87079942559EDA)
    Complete name                  : D:\Downloads\Kelly.Clarkson.+.Brynn.Cartelli.on.The.Today.Show.6-8-2018.FEED.1080i.h264.22mbps..-ALANiS\Kelly Clarkson - Miss Independent, Heat & Stronger - The Today Show 6-8-2018 FEED 1080i h264 22mbps DTSHDMA 5.1-ALANiS.mkv
    Format                         : Matroska
    Format version                 : Version 4 / Version 2
    File size                      : 2.52 GiB
    Duration                       : 14 min 10 s
    Overall bit rate               : 25.4 Mb/s
    Encoded date                   : UTC 2018-06-13 15:30:59
    Writing application            : mkvmerge v23.0.0 ('The Bride Said No') 64-bit
    Writing library                : libebml v1.3.6 + libmatroska v1.4.9
    
    Video
    ID                             : 1
    Format                         : AVC
    Format/Info                    : Advanced Video Codec
    Format profile                 : High@L4.1
    Format settings, CABAC         : Yes
    Format settings, RefFrames     : 4 frames
    Codec ID                       : V_MPEG4/ISO/AVC
    Duration                       : 14 min 10 s
    Bit rate                       : 22.6 Mb/s
    Width                          : 1 920 pixels
    Height                         : 1 080 pixels
    Display aspect ratio           : 16:9
    Frame rate mode                : Variable
    Frame rate                     : 59.940 (60000/1001) FPS
    Original frame rate            : 29.970 (30000/1001) FPS
    Color space                    : YUV
    Chroma subsampling             : 4:2:0
    Bit depth                      : 8 bits
    Scan type                      : Interlaced
    Scan type, store method        : Separated fields
    Scan order                     : Top Field First
    Bits/(Pixel*Frame)             : 0.182
    Stream size                    : 2.23 GiB (89%)
    Default                        : Yes
    Forced                         : No
    Color range                    : Full
    Color primaries                : BT.709
    Transfer characteristics       : BT.709
    Matrix coefficients            : BT.709
    
    Audio #1
    ID                             : 2
    Format                         : DTS
    Format/Info                    : Digital Theater Systems
    Format profile                 : MA / Core
    Mode                           : 16
    Format settings, Endianness    : Big
    Codec ID                       : A_DTS
    Duration                       : 14 min 10 s
    Bit rate mode                  : Variable / Constant
    Bit rate                       : 2 461 kb/s / 1 509 kb/s
    Channel(s)                     : 6 channels
    Channel positions              : Front: L C R, Side: L R, LFE
    Sampling rate                  : 48.0 kHz
    Frame rate                     : 93.750 FPS (512 SPF)
    Bit depth                      : 16 bits
    Compression mode               : Lossless / Lossy
    Delay relative to video        : 108 ms
    Stream size                    : 250 MiB (10%)
    Language                       : English
    Default                        : Yes
    Forced                         : No
    
    Audio #2
    ID                             : 3
    Format                         : MPEG Audio
    Format version                 : Version 1
    Format profile                 : Layer 2
    Codec ID                       : A_MPEG/L2
    Codec ID/Hint                  : MP2
    Duration                       : 14 min 10 s
    Bit rate mode                  : Constant
    Bit rate                       : 384 kb/s
    Channel(s)                     : 2 channels
    Sampling rate                  : 48.0 kHz
    Frame rate                     : 41.667 FPS (1152 SPF)
    Compression mode               : Lossy
    Delay relative to video        : 100 ms
    Stream size                    : 38.9 MiB (2%)
    Language                       : English
    Default                        : No
    Forced                         : No
    Hidden Content:
    You must reply before you can see the hidden data contained here.
    Credits to the original capper @ALANiS. Cutted by me :D
     
  2. Loading...


  3. Albert90

    Albert90 Active Member

    Joined:
    May 27, 2017
    Messages:
    591
    Likes Received:
    40
    KaiKawaii likes this.
  4. detroit1

    detroit1 Well-Known Member

    Joined:
    Jan 6, 2014
    Messages:
    2,971
    Likes Received:
    402
  5. falk

    falk Member

    Joined:
    Apr 9, 2014
    Messages:
    198
    Likes Received:
    23
    Many thanks!
     
  6. bflyangel

    bflyangel Member

    Joined:
    Dec 15, 2013
    Messages:
    71
    Likes Received:
    2
  7. Amauri Luiz

    Amauri Luiz Well-Known Member

    Joined:
    Jan 14, 2014
    Messages:
    1,780
    Likes Received:
    70
    Thank you so much!
     
  8. Bruno

    Bruno Well-Known Member

    Joined:
    Nov 3, 2013
    Messages:
    1,694
    Likes Received:
    127
  9. Mr. Kaše

    Mr. Kaše Member

    Joined:
    Dec 14, 2016
    Messages:
    142
    Likes Received:
    5
  10. Maura

    Maura Well-Known Member

    Joined:
    Apr 7, 2014
    Messages:
    3,011
    Likes Received:
    94
  11. Valdo

    Valdo Member

    Joined:
    May 18, 2015
    Messages:
    270
    Likes Received:
    14
  12. MatheK

    MatheK Active Member

    Joined:
    Nov 27, 2013
    Messages:
    436
    Likes Received:
    44
  13. Extazy4u2

    Extazy4u2 Well-Known Member

    Joined:
    Jan 26, 2017
    Messages:
    2,387
    Likes Received:
    256
  14. zuiderheide

    zuiderheide Well-Known Member

    Joined:
    Nov 18, 2013
    Messages:
    2,457
    Likes Received:
    80
  15. mvlmoraes

    mvlmoraes Well-Known Member Donor

    Joined:
    Nov 22, 2013
    Messages:
    2,367
    Likes Received:
    343
  16. azamusic

    azamusic Active Member Capper

    Joined:
    Dec 6, 2013
    Messages:
    786
    Likes Received:
    218
  17. ahoyhoy

    ahoyhoy Member

    Joined:
    Nov 20, 2017
    Messages:
    32
    Likes Received:
    2
  18. rhea

    rhea Well-Known Member

    Joined:
    Jan 6, 2014
    Messages:
    7,798
    Likes Received:
    985
    thank you so much
     
  19. itzjakebitch

    itzjakebitch Member

    Joined:
    Jan 25, 2017
    Messages:
    194
    Likes Received:
    3
  20. SmartBeens

    SmartBeens Active Member

    Joined:
    Oct 5, 2014
    Messages:
    816
    Likes Received:
    61
  21. ski72

    ski72 New Member

    Joined:
    Wednesday
    Messages:
    2
    Likes Received:
    0