Kelis - Milkshake (VH1HD-1080i-DD2.0-Crusha)

Discussion in 'VH1 HD' started by Crusha, Jan 27, 2016.

  1. Crusha

    Crusha Well-Known Member Capper V . I . P.

    Joined:
    Oct 15, 2014
    Messages:
    2,359
    Likes Received:
    2,953
    [​IMG]

    Mediainfo
    General
    ID : 1 (0x1)
    Complete name : Milkshake (VH1.HD.1080i.DD2.0).-Crusha.ts
    Format : MPEG-TS
    File size : 90.7 MiB
    Duration : 3mn 11s
    Overall bit rate mode : Variable
    Overall bit rate : 3 980 Kbps

    Video
    ID : 2943 (0xB7F)
    Menu ID : 1515 (0x5EB)
    Format : AVC
    Format/Info : Advanced Video Codec
    Format profile : High@L4
    Format settings, CABAC : Yes
    Format settings, ReFrames : 4 frames
    Format settings, GOP : M=3, N=24
    Codec ID : 27
    Duration : 3mn 10s
    Bit rate : 3 396 Kbps
    Width : 1 920 pixels
    Height : 1 080 pixels
    Display aspect ratio : 16:9
    Frame rate : 29.970 fps
    Standard : Component
    Color space : YUV
    Chroma subsampling : 4:2:0
    Bit depth : 8 bits
    Scan type : MBAFF
    Scan order : Top Field First
    Bits/(Pixel*Frame) : 0.055
    Stream size : 77.3 MiB (85%)
    Color range : Limited
    Color primaries : BT.709
    Transfer characteristics : BT.709
    Matrix coefficients : BT.709

    Audio
    ID : 3909 (0xF45)
    Menu ID : 1515 (0x5EB)
    Format : AC-3
    Format/Info : Audio Coding 3
    Mode extension : CM (complete main)
    Format settings, Endianness : Big
    Codec ID : 6
    Duration : 3mn 11s
    Bit rate mode : Constant
    Bit rate : 384 Kbps
    Channel(s) : 2 channels
    Channel positions : Front: L R
    Sampling rate : 48.0 KHz
    Bit depth : 16 bits
    Compression mode : Lossy
    Stream size : 8.74 MiB (10%)
    Language : English

    Hidden Content:
    You must either reply or click 'Like' to see the hidden information contained here.
    Password:
    crusha
     
  2. nathancorsini

    nathancorsini Well-Known Member

    Joined:
    Jan 19, 2016
    Messages:
    288
    Likes Received:
    289
    Thank you. Do you have Kelis Acapella?
     
  3. brian182

    brian182 Well-Known Member

    Joined:
    Oct 14, 2013
    Messages:
    2,149
    Likes Received:
    123
    thanks!! lol
     
  4. Crusha

    Crusha Well-Known Member Capper V . I . P.

    Joined:
    Oct 15, 2014
    Messages:
    2,359
    Likes Received:
    2,953
    I have this in MTV Live HD

    [​IMG]
     
    nathancorsini likes this.
  5. nathancorsini

    nathancorsini Well-Known Member

    Joined:
    Jan 19, 2016
    Messages:
    288
    Likes Received:
    289
    Awesome. If you can, please post it :D
     
  6. santa321

    santa321 Well-Known Member

    Joined:
    Dec 7, 2013
    Messages:
    1,742
    Likes Received:
    65
    thank you
     
  7. Crusha

    Crusha Well-Known Member Capper V . I . P.

    Joined:
    Oct 15, 2014
    Messages:
    2,359
    Likes Received:
    2,953
  8. maurohachen

    maurohachen Active Member

    Joined:
    Feb 24, 2015
    Messages:
    531
    Likes Received:
    34
    The Conjuring’s The 3:07 AM Project
     
  9. astroninja

    astroninja Member

    Joined:
    Jul 5, 2015
    Messages:
    178
    Likes Received:
    10
    Thank you, Crusha!!!
    One of the sexiest music videos ever!
     
  10. Pavulon

    Pavulon Well-Known Member Donor

    Joined:
    Mar 22, 2016
    Messages:
    4,588
    Likes Received:
    993
    thanks
     
  11. Clannadan

    Clannadan Active Member

    Joined:
    Jun 17, 2016
    Messages:
    153
    Likes Received:
    30
    thanks!
     
  12. mcslimshady

    mcslimshady Well-Known Member

    Joined:
    Jun 20, 2016
    Messages:
    1,944
    Likes Received:
    49
  13. keven

    keven Member

    Joined:
    Apr 1, 2015
    Messages:
    440
    Likes Received:
    14
    sahke the milkshake
     
  14. Dig

    Dig Active Member

    Joined:
    Jun 25, 2016
    Messages:
    329
    Likes Received:
    94
    thanks
     
  15. Tommyboy

    Tommyboy Active Member

    Joined:
    Oct 23, 2016
    Messages:
    949
    Likes Received:
    36
  16. hanshermann

    hanshermann Well-Known Member Uploader

    Joined:
    Aug 24, 2016
    Messages:
    7,052
    Likes Received:
    11,739
    wahts taht
     
  17. marcovieirabh

    marcovieirabh Active Member

    Joined:
    May 22, 2017
    Messages:
    775
    Likes Received:
    32
    thanks
     
  18. David_DESP

    David_DESP Member

    Joined:
    Oct 18, 2015
    Messages:
    159
    Likes Received:
    11
  19. jerrmx

    jerrmx Active Member

    Joined:
    Sep 8, 2016
    Messages:
    739
    Likes Received:
    44
    thanks
     
  20. Farish10

    Farish10 Member

    Joined:
    Aug 28, 2014
    Messages:
    36
    Likes Received:
    1