FEED Katy Perry - Wide Awake (Billboard Music Awards 2012) 1080i-CtrlHD

Discussion in 'HD Live Performances' started by danixat, Mar 22, 2020.

  1. danixat

    danixat Katycat ^-^ Capper V . I . P. Uploader Archiver Donor

    Joined:
    Feb 23, 2014
    Messages:
    1,303
    Likes Received:
    10,199
    [​IMG]
    Code:
    General
    ID                             : 1 (0x1)
    Complete name                  : F:\2012.05.20 - Wide Awake (Billboard Music Awards) CtrlHD.ts
    Format                         : MPEG-TS
    File size                      : 800 MiB
    Duration                       : 4 min 23 s
    Overall bit rate mode          : Variable
    Overall bit rate               : 25.5 Mb/s
    
    Video
    ID                             : 4113 (0x1011)
    Menu ID                        : 1 (0x1)
    Format                         : AVC
    Format/Info                    : Advanced Video Codec
    Format profile                 : High@L4.1
    Format settings, CABAC         : Yes
    Format settings, RefFrames     : 6 frames
    Codec ID                       : 27
    Duration                       : 4 min 23 s
    Bit rate mode                  : Variable
    Bit rate                       : 23.8 Mb/s
    Maximum bit rate               : 40.0 Mb/s
    Width                          : 1 280 pixels
    Height                         : 720 pixels
    Display aspect ratio           : 16:9
    Frame rate                     : 59.940 (60000/1001) FPS
    Color space                    : YUV
    Chroma subsampling             : 4:2:0
    Bit depth                      : 8 bits
    Scan type                      : Progressive
    Bits/(Pixel*Frame)             : 0.431
    Stream size                    : 750 MiB (94%)
    Color range                    : Limited
    Color primaries                : BT.709
    Transfer characteristics       : BT.709
    Matrix coefficients            : BT.709
    
    Audio
    ID                             : 4352 (0x1100)
    Menu ID                        : 1 (0x1)
    Format                         : MPEG Audio
    Format version                 : Version 1
    Format profile                 : Layer 2
    Mode                           : Dual mono
    Codec ID                       : 3
    Duration                       : 4 min 24 s
    Bit rate mode                  : Constant
    Bit rate                       : 384 kb/s
    Channel(s)                     : 2 channels
    Sampling rate                  : 48.0 kHz
    Compression mode               : Lossy
    Delay relative to video        : -21 ms
    Stream size                    : 12.1 MiB (2%)
    Language                       : aag
    Download:
    Hidden Content:
    You must either reply or click 'Like' to see the hidden information contained here.
     
    rkn9, tetard, rhea and 11 others like this.
  2. Loading...


  3. nino.navy

    nino.navy Well-Known Member

    Joined:
    May 30, 2014
    Messages:
    4,401
    Likes Received:
    345
    thanks a lot
     
  4. MichelleBright

    MichelleBright Well-Known Member

    Joined:
    Jul 20, 2019
    Messages:
    1,220
    Likes Received:
    195
    Thanks, appreciate :)
     
  5. 12wurzel

    12wurzel Well-Known Member

    Joined:
    Oct 16, 2016
    Messages:
    1,032
    Likes Received:
    99
    mercie
     
  6. Yehonatan643456

    Yehonatan643456 Well-Known Member

    Joined:
    Apr 10, 2017
    Messages:
    1,075
    Likes Received:
    74
  7. neb010203

    neb010203 Well-Known Member

    Joined:
    Sep 6, 2018
    Messages:
    1,826
    Likes Received:
    73
  8. aphroditeJL

    aphroditeJL Member

    Joined:
    Mar 29, 2019
    Messages:
    67
    Likes Received:
    8
    thanks a lot!!!!!
     
  9. Jenkins

    Jenkins Well-Known Member

    Joined:
    May 30, 2019
    Messages:
    24,612
    Likes Received:
    640
    THANKS
     
  10. rhea

    rhea Well-Known Member

    Joined:
    Jan 6, 2014
    Messages:
    10,696
    Likes Received:
    1,997
    thank you so much!
     
  11. Pham tuan

    Pham tuan Well-Known Member

    Joined:
    Dec 23, 2018
    Messages:
    1,336
    Likes Received:
    146
    thanks
     
  12. mizdot

    mizdot Well-Known Member

    Joined:
    Nov 13, 2014
    Messages:
    3,942
    Likes Received:
    205
    tnx man
     
  13. Fernando

    Fernando Well-Known Member

    Joined:
    Jul 22, 2014
    Messages:
    1,390
    Likes Received:
    53
    gracias
     
  14. tetard

    tetard Well-Known Member V . I . P.

    Joined:
    Mar 29, 2014
    Messages:
    4,624
    Likes Received:
    6,226
    Thank you
     
  15. hugonicolas

    hugonicolas Active Member

    Joined:
    Aug 25, 2017
    Messages:
    979
    Likes Received:
    53
  16. ABCDE123

    ABCDE123 Active Member

    Joined:
    Apr 11, 2020
    Messages:
    254
    Likes Received:
    28