Katy Perry Vs The World! Bday 30 576p

Discussion in 'SD Live Performances' started by Dfrazzer, Oct 27, 2014.

  1. Dfrazzer

    Dfrazzer Super Moderator Staff Member Super Moderator Capper V . I . P. Donor

    Joined:
    Nov 4, 2013
    Messages:
    5,969
    Likes Received:
    15,394
    Requested by: Katheryn

    [​IMG] [​IMG]

    Code:
    General
    ID : 1 (0x1)
    Complete name : C:\Users\Dfrazzer\Desktop\Katy Perry Vs The World! Bday 30 576p.ts
    Format : MPEG-TS
    File size : 4.10 GiB
    Duration : 1h 59mn
    Overall bit rate mode : Variable
    Overall bit rate : 4 921 Kbps
    
    Video
    ID : 100 (0x64)
    Menu ID : 1 (0x1)
    Format : AVC
    Format/Info : Advanced Video Codec
    Format profile : Main@L3.1
    Format settings, CABAC : Yes
    Format settings, ReFrames : 3 frames
    Codec ID : 27
    Duration : 1h 59mn
    Bit rate mode : Variable
    Bit rate : 4 012 Kbps
    Maximum bit rate : 6 000 Kbps
    Width : 1 024 pixels
    Height : 576 pixels
    Display aspect ratio : 16:9
    Frame rate : 25.000 fps
    Standard : PAL
    Color space : YUV
    Chroma subsampling : 4:2:0
    Bit depth : 8 bits
    Scan type : Progressive
    Bits/(Pixel*Frame) : 0.272
    Stream size : 3.34 GiB (82%)
    
    Audio #1
    ID : 101 (0x65)
    Menu ID : 1 (0x1)
    Format : AAC
    Format/Info : Advanced Audio Codec
    Format version : Version 4
    Format profile : LC
    Muxing mode : ADTS
    Codec ID : 15
    Duration : 1h 59mn
    Bit rate mode : Variable
    Bit rate : 220 Kbps
    Channel(s) : 2 channels
    Channel positions : Front: L R
    Sampling rate : 48.0 KHz
    Compression mode : Lossy
    Stream size : 188 MiB (4%)
    
    Audio #2
    ID : 103 (0x67)
    Menu ID : 1 (0x1)
    Format : AAC
    Format/Info : Advanced Audio Codec
    Format version : Version 4
    Format profile : LC
    Muxing mode : ADTS
    Codec ID : 15
    Duration : 1h 59mn
    Bit rate mode : Variable
    Bit rate : 220 Kbps
    Channel(s) : 2 channels
    Channel positions : Front: L R
    Sampling rate : 48.0 KHz
    Compression mode : Lossy
    Stream size : 188 MiB (4%)
    
    Audio #3
    ID : 105 (0x69)
    Menu ID : 1 (0x1)
    Format : AAC
    Format/Info : Advanced Audio Codec
    Format version : Version 4
    Format profile : LC
    Muxing mode : ADTS
    Codec ID : 15
    Duration : 1h 59mn
    Bit rate mode : Variable
    Bit rate : 220 Kbps
    Channel(s) : 2 channels
    Channel positions : Front: L R
    Sampling rate : 48.0 KHz
    Compression mode : Lossy
    Stream size : 188 MiB (4%)
    
    Hidden Content:
    You must reply before you can see the hidden data contained here.
    Capped by me.
     
    alex, danixat and Katheryn like this.
  2. Loading...


  3. Katheryn

    Katheryn Well-Known Member

    Joined:
    Nov 29, 2013
    Messages:
    994
    Likes Received:
    2,687
    Great ! Thank you very much ! :love::love:

    :):D:victory:
     
  4. danixat

    danixat Katycat ^-^ Capper V . I . P. Donor

    Joined:
    Feb 23, 2014
    Messages:
    1,205
    Likes Received:
    8,687
    Thanks!
     
  5. Joseph

    Joseph Active Member

    Joined:
    Dec 10, 2013
    Messages:
    760
    Likes Received:
    198
    hanks
     
  6. hungquocphan

    hungquocphan Active Member

    Joined:
    Nov 1, 2013
    Messages:
    842
    Likes Received:
    37
  7. alex

    alex Well-Known Member

    Joined:
    Nov 21, 2013
    Messages:
    4,599
    Likes Received:
    427
    Thanks:victory:
     
  8. Winged

    Winged Active Member

    Joined:
    Sep 19, 2014
    Messages:
    611
    Likes Received:
    76
    Thanks
     
  9. ytyh

    ytyh Member

    Joined:
    Mar 30, 2014
    Messages:
    432
    Likes Received:
    4
    Thank you so much.
     
  10. Snorom6

    Snorom6 Well-Known Member V . I . P. Uploader

    Joined:
    Dec 17, 2015
    Messages:
    4,246
    Likes Received:
    7,172