Katy Perry - Unconditionally (M3HD-1080i-DD5.1-AmazonBoy)

Discussion in 'M3 HD' started by RGF72K, Nov 22, 2013.

  1. RGF72K

    RGF72K ????? Staff Member Super Moderator

    Joined:
    Oct 1, 2013
    Messages:
    1,020
    Likes Received:
    14,777
    [​IMG]

    Code:
    General
    ID                                      : 1 (0x1)
    Complete name                            : Katy_Perry_-_Uconditionally_(M3HD-1080i-AmazonBoy).ts
    Format                                  : MPEG-TS
    File size                                : 390 MiB
    Duration                                : 3mn 53s
    Overall bit rate mode                    : Variable
    Overall bit rate                        : 14.0 Mbps
    
    Video
    ID                                      : 641 (0x281)
    Menu ID                                  : 1 (0x1)
    Format                                  : MPEG Video
    Format version                          : Version 2
    Format profile                          : [email protected]
    Format settings, BVOP                    : Yes
    Format settings, Matrix                  : Custom
    Format settings, GOP                    : Variable
    Codec ID                                : 2
    Duration                                : 3mn 52s
    Bit rate mode                            : Variable
    Bit rate                                : 13.0 Mbps
    Maximum bit rate                        : 24.0 Mbps
    Width                                    : 1 920 pixels
    Height                                  : 1 080 pixels
    Display aspect ratio                    : 16:9
    Frame rate                              : 29.970 fps
    Color space                              : YUV
    Chroma subsampling                      : 4:2:0
    Bit depth                                : 8 bits
    Compression mode                        : Lossy
    Bits/(Pixel*Frame)                      : 0.208
    Time code of first frame                : 00:00:00;00
    Time code source                        : Group of pictures header
    Stream size                              : 360 MiB (92%)
    Writing library                          : (c) 1998-2012 Womble Multimedia, Inc. / MPEG Video Wizard DVD 5.0.1.100 (03/2011) / Sep 22 2012
    
    Audio
    ID                                      : 642 (0x282)
    Menu ID                                  : 1 (0x1)
    Format                                  : AC-3
    Format/Info                              : Audio Coding 3
    Mode extension                          : CM (complete main)
    Format settings, Endianness              : Big
    Codec ID                                : 129
    Duration                                : 3mn 52s
    Bit rate mode                            : Constant
    Bit rate                                : 384 Kbps
    Channel(s)                              : 6 channels
    Channel positions                        : Front: L C R, Side: L R, LFE
    Sampling rate                            : 48.0 KHz
    Bit depth                                : 16 bits
    Compression mode                        : Lossy
    Stream size                              : 10.7 MiB (3%)
    Language                                : English
    


    Download:
    Hidden Content:
    You must either reply or click 'Like' to see the hidden information contained here.

    Capper: AmazonBoy
     
    Last edited: May 20, 2014
    moon2k, DETOX, Dave and 21 others like this.
  2. hungquocphan

    hungquocphan Member

    Joined:
    Nov 1, 2013
    Messages:
    463
    Likes Received:
    15
    oh no , i'm very happy , i like 1080i version , thanks forever
     
  3. pablo palormo

    pablo palormo Member

    Joined:
    Oct 27, 2013
    Messages:
    177
    Likes Received:
    2
  4. Katheryn

    Katheryn Well-Known Member

    Joined:
    Nov 29, 2013
    Messages:
    994
    Likes Received:
    2,277
    thanks
     
  5. KallumLavigne

    KallumLavigne Well-Known Member

    Joined:
    Nov 18, 2013
    Messages:
    677
    Likes Received:
    1,219
    thanks
     
  6. mg2242

    mg2242 Member

    Joined:
    Nov 30, 2013
    Messages:
    80
    Likes Received:
    0
    thank you so much
     
  7. Laryovceks

    Laryovceks Member

    Joined:
    Dec 5, 2013
    Messages:
    16
    Likes Received:
    0
    OFC THX BUDDY
     
  8. jakakecu

    jakakecu Member

    Joined:
    Dec 9, 2013
    Messages:
    125
    Likes Received:
    0
    many tahanks for katy
     
  9. tetard

    tetard Well-Known Member

    Joined:
    Mar 29, 2014
    Messages:
    583
    Likes Received:
    1,207
    thank you
     
  10. beAst5

    beAst5 Member

    Joined:
    Mar 30, 2014
    Messages:
    223
    Likes Received:
    14
    thanks
     
  11. kesh1000

    kesh1000 Member

    Joined:
    May 5, 2014
    Messages:
    75
    Likes Received:
    0
  12. Dreamer

    Dreamer Lana Del Rey ♥ Capper Uploader

    Joined:
    Dec 4, 2014
    Messages:
    2,489
    Likes Received:
    2,656
    Thanks
     
  13. bodinho

    bodinho Member

    Joined:
    Dec 13, 2014
    Messages:
    96
    Likes Received:
    5
     
  14. Andreas Ponikau

    Andreas Ponikau Member

    Joined:
    Feb 4, 2015
    Messages:
    246
    Likes Received:
    20
    thanks
     
  15. Elle

    Elle Member

    Joined:
    Mar 6, 2015
    Messages:
    101
    Likes Received:
    2
    thank u
     
  16. rashka

    rashka Member

    Joined:
    Apr 8, 2014
    Messages:
    206
    Likes Received:
    7
    thank you so much
     
  17. sagor

    sagor Member

    Joined:
    Mar 24, 2014
    Messages:
    56
    Likes Received:
    1
    Thank you..
     
  18. PerryMe

    PerryMe Member

    Joined:
    Aug 29, 2015
    Messages:
    321
    Likes Received:
    3
    thank you
     
  19. jayananda

    jayananda Member

    Joined:
    Jan 14, 2015
    Messages:
    273
    Likes Received:
    12
    Thank You
     
  20. arnold

    arnold Member

    Joined:
    Oct 29, 2014
    Messages:
    234
    Likes Received:
    3
    thank you!!