FEED Katy Perry - Unconditionally - 2013 MTV EMA 1080i

Discussion in 'HD Live Performances' started by hanshermann, Dec 7, 2017.

  1. hanshermann

    hanshermann Well-Known Member Uploader

    Joined:
    Aug 24, 2016
    Messages:
    6,596
    Likes Received:
    10,430
    [​IMG]

    Katy Perry - Unconditionally - 2013 MTV EMA 1080i

    Code:
    General
    ID                          : 1 (0x1)
    Complete name               : Katy Perry -  Unconditionally - 2013 MTV EMA 1080i.ts
    Format                      : MPEG-TS
    File size                   : 1.13 GiB
    Duration                    : 5 min 17 s
    Overall bit rate mode       : Variable
    Overall bit rate            : 30.7 Mb/s
    
    Video
    ID                          : 33 (0x21)
    Menu ID                     : 1 (0x1)
    Format                      : AVC
    Format/Info                 : Advanced Video Codec
    Format profile              : High@L4.1
    Format settings, CABAC      : Yes
    Format settings, ReFrames   : 4 frames
    Codec ID                    : 27
    Duration                    : 5 min 17 s
    Bit rate                    : 28.9 Mb/s
    Width                       : 1 920 pixels
    Height                      : 1 080 pixels
    Display aspect ratio        : 16:9
    Frame rate                  : 25.000 FPS
    Color space                 : YUV
    Chroma subsampling          : 4:2:0
    Bit depth                   : 8 bits
    Scan type                   : Interlaced
    Scan type, store method     : Separated fields
    Scan order                  : Top Field First
    Bits/(Pixel*Frame)          : 0.557
    Stream size                 : 1.07 GiB (94%)
    Color range                 : Limited
    Color primaries             : BT.709
    Transfer characteristics    : BT.709
    Matrix coefficients         : BT.709
    
    Audio
    ID                          : 34 (0x22)
    Menu ID                     : 1 (0x1)
    Format                      : MPEG Audio
    Format version              : Version 1
    Format profile              : Layer 2
    Codec ID                    : 3
    Duration                    : 5 min 17 s
    Bit rate mode               : Constant
    Bit rate                    : 256 kb/s
    Channel(s)                  : 2 channels
    Sampling rate               : 48.0 kHz
    Compression mode            : Lossy
    Delay relative to video     : -2 ms
    Stream size                 : 9.68 MiB (1%)
    Language                    : English
    
    Hidden Content:
    You must either reply or click 'Like' to see the hidden information contained here.
     
    Last edited: Apr 14, 2018
  2. Loading...


  3. xabieroyo

    xabieroyo Active Member

    Joined:
    May 30, 2017
    Messages:
    172
    Likes Received:
    95
    thanks
     
  4. Pavulon

    Pavulon Well-Known Member Donor

    Joined:
    Mar 22, 2016
    Messages:
    4,476
    Likes Received:
    934
    thanks
     
  5. theclimb

    theclimb Well-Known Member

    Joined:
    Dec 16, 2014
    Messages:
    1,244
    Likes Received:
    184
    thanks
     
  6. frisby

    frisby Well-Known Member

    Joined:
    Nov 21, 2015
    Messages:
    1,490
    Likes Received:
    132
    thanks
     
  7. apl3

    apl3 Well-Known Member

    Joined:
    Jun 11, 2017
    Messages:
    1,057
    Likes Received:
    29
    thanks
     
  8. nino.navy

    nino.navy Well-Known Member

    Joined:
    May 30, 2014
    Messages:
    2,982
    Likes Received:
    178
    thanks a lot
     
  9. JazzyJay

    JazzyJay Member

    Joined:
    Dec 3, 2017
    Messages:
    55
    Likes Received:
    0
    Thank You!
     
  10. mike gunen

    mike gunen Well-Known Member

    Joined:
    Nov 9, 2013
    Messages:
    1,000
    Likes Received:
    40
  11. Amauri Luiz

    Amauri Luiz Well-Known Member

    Joined:
    Jan 14, 2014
    Messages:
    1,858
    Likes Received:
    72
    Thank you!
     
  12. ulygatore

    ulygatore Well-Known Member

    Joined:
    Jun 29, 2017
    Messages:
    1,192
    Likes Received:
    59
  13. ianf.hl2

    ianf.hl2 Member

    Joined:
    Jun 30, 2017
    Messages:
    44
    Likes Received:
    2
    thnks for this
     
  14. thesparkly1

    thesparkly1 Active Member

    Joined:
    May 5, 2017
    Messages:
    664
    Likes Received:
    37
    Thank you
     
  15. rkn9

    rkn9 Well-Known Member

    Joined:
    Jan 9, 2016
    Messages:
    4,180
    Likes Received:
    65
    oleeeeeeeeeeeeeee