FEED Katy Perry - Unconditionally - 2013 MTV EMA 1080i

Discussion in 'HD Live Performances' started by hanshermann, Dec 7, 2017.

  1. hanshermann

    hanshermann Well-Known Member Uploader

    Joined:
    Aug 24, 2016
    Messages:
    5,037
    Likes Received:
    3,799
    [​IMG]

    Katy Perry - Unconditionally - 2013 MTV EMA 1080i

    Code:
    General
    ID                          : 1 (0x1)
    Complete name               : Katy Perry -  Unconditionally - 2013 MTV EMA 1080i.ts
    Format                      : MPEG-TS
    File size                   : 1.13 GiB
    Duration                    : 5 min 17 s
    Overall bit rate mode       : Variable
    Overall bit rate            : 30.7 Mb/s
    
    Video
    ID                          : 33 (0x21)
    Menu ID                     : 1 (0x1)
    Format                      : AVC
    Format/Info                 : Advanced Video Codec
    Format profile              : [email protected]
    Format settings, CABAC      : Yes
    Format settings, ReFrames   : 4 frames
    Codec ID                    : 27
    Duration                    : 5 min 17 s
    Bit rate                    : 28.9 Mb/s
    Width                       : 1 920 pixels
    Height                      : 1 080 pixels
    Display aspect ratio        : 16:9
    Frame rate                  : 25.000 FPS
    Color space                 : YUV
    Chroma subsampling          : 4:2:0
    Bit depth                   : 8 bits
    Scan type                   : Interlaced
    Scan type, store method     : Separated fields
    Scan order                  : Top Field First
    Bits/(Pixel*Frame)          : 0.557
    Stream size                 : 1.07 GiB (94%)
    Color range                 : Limited
    Color primaries             : BT.709
    Transfer characteristics    : BT.709
    Matrix coefficients         : BT.709
    
    Audio
    ID                          : 34 (0x22)
    Menu ID                     : 1 (0x1)
    Format                      : MPEG Audio
    Format version              : Version 1
    Format profile              : Layer 2
    Codec ID                    : 3
    Duration                    : 5 min 17 s
    Bit rate mode               : Constant
    Bit rate                    : 256 kb/s
    Channel(s)                  : 2 channels
    Sampling rate               : 48.0 kHz
    Compression mode            : Lossy
    Delay relative to video     : -2 ms
    Stream size                 : 9.68 MiB (1%)
    Language                    : English
    
    Hidden Content:
    You must either reply or click 'Like' to see the hidden information contained here.
     
  2. Loading...


  3. xabieroyo

    xabieroyo Active Member

    Joined:
    May 30, 2017
    Messages:
    116
    Likes Received:
    80
    thanks
     
  4. Pavulon

    Pavulon Well-Known Member

    Joined:
    Mar 22, 2016
    Messages:
    3,464
    Likes Received:
    402
    thanks
     
  5. theclimb

    theclimb Active Member

    Joined:
    Dec 16, 2014
    Messages:
    749
    Likes Received:
    132
    thanks
     
  6. frisby

    frisby Well-Known Member

    Joined:
    Nov 21, 2015
    Messages:
    1,135
    Likes Received:
    118
    thanks
     
  7. apl3

    apl3 Member

    Joined:
    Jun 11, 2017
    Messages:
    562
    Likes Received:
    20
  8. nino.navy

    nino.navy Well-Known Member

    Joined:
    May 30, 2014
    Messages:
    2,356
    Likes Received:
    89
  9. JazzyJay

    JazzyJay New Member

    Joined:
    Dec 3, 2017
    Messages:
    20
    Likes Received:
    0
  10. mike gunen

    mike gunen Active Member

    Joined:
    Nov 9, 2013
    Messages:
    880
    Likes Received:
    31
  11. Amauri Luiz

    Amauri Luiz Well-Known Member

    Joined:
    Jan 14, 2014
    Messages:
    1,357
    Likes Received:
    50
  12. ulygatore

    ulygatore Active Member

    Joined:
    Jun 29, 2017
    Messages:
    916
    Likes Received:
    36