Katy Perry - This Is How We Do (MTVIDOL-1080i-DD2.0-Djodjara)-HDMania

Discussion in 'MTV IDOL' started by Djodjara, May 8, 2015.

  1. Djodjara

    Djodjara Gwen Fan Capper

    Joined:
    Sep 6, 2014
    Messages:
    649
    Likes Received:
    1,070
    Katy Perry - This Is How We Do (MTV Idol-1080i-Djodjara)-HDMania

    [​IMG]
    [​IMG]

    General:
    ID : 1 (0x1)
    Format : MPEG-TS
    File size : 100 MiB
    Duration : 3mn 21s
    Overall bit rate mode : Variable
    Overall bit rate : 4 188 Kbps

    Video:
    ID : 310 (0x136)
    Menu ID : 1 (0x1)
    Format : AVC
    Format/Info : Advanced Video Codec
    Format profile : High@L4.0
    Format settings, CABAC : Yes
    Format settings, ReFrames : 4 frames
    Codec ID : 27
    Duration : 3mn 21s
    Bit rate : 3 788 Kbps
    Width : 1 920 pixels
    Height : 1 080 pixels
    Display aspect ratio : 16:9
    Frame rate : 25.000 fps
    Standard : Component
    Color space : YUV
    Chroma subsampling : 4:2:0
    Bit depth : 8 bits
    Scan type : MBAFF
    Scan order : Top Field First
    Bits/(Pixel*Frame) : 0.073
    Stream size : 90.9 MiB (90%)
    Color primaries : BT.709
    Transfer characteristics : BT.709
    Matrix coefficients : BT.709
    Color range : Limited

    Audio:
    ID : 321 (0x141)
    Menu ID : 1 (0x1)
    Format : AC-3
    Format/Info : Audio Coding 3
    Mode extension : CM (complete main)
    Format settings, Endianness : Big
    Codec ID : 6
    Duration : 3mn 21s
    Bit rate mode : Constant
    Bit rate : 192 Kbps
    Channel(s) : 2 channels
    Channel positions : Front: L R
    Sampling rate : 48.0 KHz
    Bit depth : 16 bits
    Compression mode : Lossy
    Stream size : 4.61 MiB (5%)
    Language : French

    Hidden Content:
    You must reply before you can see the hidden data contained here.
     
    DETOX, amir, MetaLeaFX and 5 others like this.
  2. Loading...


  3. Katheryn

    Katheryn Well-Known Member

    Joined:
    Nov 29, 2013
    Messages:
    994
    Likes Received:
    2,169
    Thank you ! :)
     
    Djodjara likes this.
  4. Grailen

    Grailen Well-Known Member

    Joined:
    Oct 8, 2013
    Messages:
    529
    Likes Received:
    467
    thank you
     
  5. oztheone

    oztheone New Member

    Joined:
    Dec 15, 2014
    Messages:
    16
    Likes Received:
    0
    Thank you very much
     
  6. multimediafm

    multimediafm Well-Known Member Donor

    Joined:
    Mar 27, 2014
    Messages:
    8,290
    Likes Received:
    341
    Thanks :)
    Katy Perry - This Is How We Do (MTV Idol-1080i-Djodjara)-HDMania
     
  7. Dreamer

    Dreamer ♫ It's Britney Bitch ♫ Capper Uploader

    Joined:
    Dec 4, 2014
    Messages:
    2,207
    Likes Received:
    1,924
    Thank you
     
  8. rhea

    rhea Well-Known Member

    Joined:
    Jan 6, 2014
    Messages:
    5,258
    Likes Received:
    253
    thank you so much :)
     
  9. MetaLeaFX

    MetaLeaFX Member

    Joined:
    Jan 16, 2014
    Messages:
    118
    Likes Received:
    1
    thank you
     
  10. Crusha

    Crusha Well-Known Member Capper

    Joined:
    Oct 15, 2014
    Messages:
    2,350
    Likes Received:
    2,133
    thank you
     
  11. PerryMe

    PerryMe Member

    Joined:
    Aug 29, 2015
    Messages:
    321
    Likes Received:
    3
    yes thank you a lot
     
  12. amir

    amir Member

    Joined:
    Nov 30, 2013
    Messages:
    56
    Likes Received:
    3
    thanks for the amazing work!
     
  13. Harry

    Harry Member

    Joined:
    Mar 4, 2014
    Messages:
    289
    Likes Received:
    3
    Thanks a lot! :D
     
  14. DETOX

    DETOX Well-Known Member V . I . P. Uploader

    Joined:
    Feb 20, 2014
    Messages:
    2,748
    Likes Received:
    13,831
    Thank you so much! :victory:
     
  15. Zeeh

    Zeeh Member

    Joined:
    Mar 20, 2015
    Messages:
    327
    Likes Received:
    4
    Like.
     
  16. slill

    slill Member

    Joined:
    Jul 25, 2014
    Messages:
    910
    Likes Received:
    9
    thanks
     
  17. JSmoove

    JSmoove Member

    Joined:
    Nov 27, 2013
    Messages:
    57
    Likes Received:
    1
    thanks!
     
  18. revilo18

    revilo18 Well-Known Member

    Joined:
    May 26, 2016
    Messages:
    1,310
    Likes Received:
    56
    THANKKK