Katy Perry The Official Top 10 20th October 2014 576p

Discussion in 'SD Live Performances' started by Dfrazzer, Oct 21, 2014.

  1. Dfrazzer

    Dfrazzer Super Moderator Staff Member Super Moderator Capper V . I . P. Donor

    Joined:
    Nov 4, 2013
    Messages:
    5,969
    Likes Received:
    15,394
    Requested by: Katheryn

    [​IMG] [​IMG] [​IMG] [​IMG] [​IMG] [​IMG] [​IMG] [​IMG] [​IMG] [​IMG] [​IMG] [​IMG] [​IMG] [​IMG] [​IMG] [​IMG] [​IMG] [​IMG] [​IMG] [​IMG] [​IMG] [​IMG] [​IMG] [​IMG] [​IMG] [​IMG] [​IMG] [​IMG] [​IMG] [​IMG]

    Code:
    General
    ID : 1 (0x1)
    Complete name : C:\Users\Dfrazzer\Desktop\Katy Perry The Official Top 10 20th October 2014 576p.ts
    Format : MPEG-TS
    File size : 1.54 GiB
    Duration : 43mn 51s
    Overall bit rate mode : Variable
    Overall bit rate : 5 012 Kbps
    
    Video
    ID : 100 (0x64)
    Menu ID : 1 (0x1)
    Format : AVC
    Format/Info : Advanced Video Codec
    Format profile : Main@L3.2
    Format settings, CABAC : Yes
    Format settings, ReFrames : 3 frames
    Codec ID : 27
    Duration : 43mn 51s
    Bit rate mode : Variable
    Bit rate : 4 098 Kbps
    Maximum bit rate : 7 000 Kbps
    Width : 1 024 pixels
    Height : 576 pixels
    Display aspect ratio : 16:9
    Frame rate : 50.000 fps
    Standard : PAL
    Color space : YUV
    Chroma subsampling : 4:2:0
    Bit depth : 8 bits
    Scan type : Progressive
    Bits/(Pixel*Frame) : 0.139
    Stream size : 1.26 GiB (82%)
    
    Audio #1
    ID : 101 (0x65)
    Menu ID : 1 (0x1)
    Format : AAC
    Format/Info : Advanced Audio Codec
    Format version : Version 4
    Format profile : LC
    Muxing mode : ADTS
    Codec ID : 15
    Duration : 43mn 51s
    Bit rate mode : Variable
    Bit rate : 220 Kbps
    Channel(s) : 2 channels
    Channel positions : Front: L R
    Sampling rate : 48.0 KHz
    Compression mode : Lossy
    Stream size : 69.0 MiB (4%)
    
    Audio #2
    ID : 103 (0x67)
    Menu ID : 1 (0x1)
    Format : AAC
    Format/Info : Advanced Audio Codec
    Format version : Version 4
    Format profile : LC
    Muxing mode : ADTS
    Codec ID : 15
    Duration : 43mn 51s
    Bit rate mode : Variable
    Bit rate : 220 Kbps
    Channel(s) : 2 channels
    Channel positions : Front: L R
    Sampling rate : 48.0 KHz
    Compression mode : Lossy
    Stream size : 69.0 MiB (4%)
    
    Audio #3
    ID : 105 (0x69)
    Menu ID : 1 (0x1)
    Format : AAC
    Format/Info : Advanced Audio Codec
    Format version : Version 4
    Format profile : LC
    Muxing mode : ADTS
    Codec ID : 15
    Duration : 43mn 51s
    Bit rate mode : Variable
    Bit rate : 220 Kbps
    Channel(s) : 2 channels
    Channel positions : Front: L R
    Sampling rate : 48.0 KHz
    Compression mode : Lossy
    Stream size : 69.0 MiB (4%)
    
    Hidden Content:
    You must reply before you can see the hidden data contained here.
    Capped by me.
     
    alex, Katheryn and danixat like this.
  2. Loading...


  3. Katheryn

    Katheryn Well-Known Member

    Joined:
    Nov 29, 2013
    Messages:
    994
    Likes Received:
    2,687
    Thank you so much ! I really appreciate it :love::love:

    :D:victory:
     
  4. alex

    alex Well-Known Member

    Joined:
    Nov 21, 2013
    Messages:
    4,599
    Likes Received:
    427
    Thanks:victory:
     
  5. hungquocphan

    hungquocphan Active Member

    Joined:
    Nov 1, 2013
    Messages:
    842
    Likes Received:
    37
    thank for share
     
  6. ytyh

    ytyh Member

    Joined:
    Mar 30, 2014
    Messages:
    432
    Likes Received:
    4
    Thank you:)
     
  7. Joseph

    Joseph Active Member

    Joined:
    Dec 10, 2013
    Messages:
    760
    Likes Received:
    198
    thanks.
     
  8. Winged

    Winged Active Member

    Joined:
    Sep 19, 2014
    Messages:
    611
    Likes Received:
    76
    Thanks
     
  9. John

    John Member

    Joined:
    Oct 30, 2013
    Messages:
    502
    Likes Received:
    5
    thanks
     
  10. Snorom6

    Snorom6 Well-Known Member V . I . P. Uploader

    Joined:
    Dec 17, 2015
    Messages:
    4,246
    Likes Received:
    7,172