Katy Perry - Rise (MTV.LIVE.HD.1080i.MP2)-yukides

Discussion in 'MTV LIVE HD' started by yukides, Sep 25, 2016.

  1. yukides

    yukides Active Member

    Joined:
    Nov 15, 2013
    Messages:
    167
    Likes Received:
    78
    [​IMG]
    MediaInfo
    Code:
    Format                                   : MPEG-TS
    File size                                : 80.3 MiB
    Duration                                 : 3 min
    Overall bit rate mode                    : Variable
    Overall bit rate                         : 3 404 kb/s
    
    Video
    ID                                       : 2755 (0xAC3)
    Menu ID                                  : 855 (0x357)
    Format                                   : AVC
    Format/Info                              : Advanced Video Codec
    Format profile                           : [email protected]
    Format settings, CABAC                   : Yes
    Format settings, ReFrames                : 4 frames
    Codec ID                                 : 27
    Duration                                 : 3 min
    Bit rate                                 : 2 977 kb/s
    Width                                    : 1 920 pixels
    Height                                   : 1 080 pixels
    Display aspect ratio                     : 16:9
    Frame rate                               : 29.970 (30000/1001) FPS
    Standard                                 : Component
    Color space                              : YUV
    Chroma subsampling                       : 4:2:0
    Bit depth                                : 8 bits
    Scan type                                : MBAFF
    Scan type, store method                  : Separated fields
    Scan order                               : Top Field First
    Bits/(Pixel*Frame)                       : 0.048
    Stream size                              : 70.2 MiB (87%)
    Color range                              : Limited
    Color primaries                          : BT.709
    Transfer characteristics                 : BT.709
    Matrix coefficients                      : BT.709
    
    Audio
    ID                                       : 3755 (0xEAB)
    Menu ID                                  : 855 (0x357)
    Format                                   : MPEG Audio
    Format version                           : Version 1
    Format profile                           : Layer 2
    Mode                                     : Dual mono
    Codec ID                                 : 3
    Duration                                 : 3 min
    Bit rate mode                            : Constant
    Bit rate                                 : 256 kb/s
    Channel(s)                               : 2 channels
    Sampling rate                            : 48.0 kHz
    Compression mode                         : Lossy
    Delay relative to video                  : -33 ms
    Stream size                              : 6.04 MiB (8%)
    Language                                 : English
    
    
    Hidden Content:
    You must reply before you can see the hidden data contained here.
    Capped By Me
     
    Last edited: Sep 25, 2016
    rhea likes this.
  2. Loading...


  3. Snorom6

    Snorom6 Well-Known Member Uploader

    Joined:
    Dec 17, 2015
    Messages:
    4,244
    Likes Received:
    4,349
  4. javier vega

    javier vega Member

    Joined:
    Nov 16, 2013
    Messages:
    225
    Likes Received:
    4
    Preciosa jaajja
     
  5. Harry

    Harry Member

    Joined:
    Mar 4, 2014
    Messages:
    310
    Likes Received:
    4
    Thank you so much please upload more videos from MTV Live! :):D:love:
     
  6. rhea

    rhea Well-Known Member

    Joined:
    Jan 6, 2014
    Messages:
    5,870
    Likes Received:
    434
    thank you
     
  7. petermmm

    petermmm Member

    Joined:
    Jul 4, 2016
    Messages:
    143
    Likes Received:
    4
    thx thats good
     
  8. Pussy

    Pussy russian-kitty PS of war V . I . P.

    Joined:
    Feb 21, 2016
    Messages:
    864
    Likes Received:
    1,712
    Thanks.
     
  9. hanshermann

    hanshermann Well-Known Member

    Joined:
    Aug 24, 2016
    Messages:
    3,807
    Likes Received:
    28
    wahts taht