HDTV Katy Perry - Part Of Me (Special Version) (Das Erste HD - Echo 2012 - 22Mar2012) 720p -dylwys

Discussion in 'HD Live Performances' started by hanshermann, Dec 7, 2017.

  1. hanshermann

    hanshermann Well-Known Member Uploader

    Joined:
    Aug 24, 2016
    Messages:
    5,037
    Likes Received:
    3,799
    [​IMG]

    Katy Perry - Part Of Me (Special Version) (Das Erste HD - Echo 2012 - 22Mar2012) 720p -dylwys

    Code:
    General
    ID                          : 1011 (0x3F3)
    Complete name               : Katy Perry - Part Of Me (Special Version) (Das Erste HD - Echo 2012 - 22Mar2012)-dylwys.ts
    Format                      : MPEG-TS
    File size                   : 425 MiB
    Duration                    : 4 min 45 s
    Overall bit rate mode       : Variable
    Overall bit rate            : 12.5 Mb/s
    
    Video
    ID                          : 6010 (0x177A)
    Menu ID                     : 11100 (0x2B5C)
    Format                      : AVC
    Format/Info                 : Advanced Video Codec
    Format profile              : [email protected]
    Format settings, CABAC      : Yes
    Format settings, ReFrames   : 5 frames
    Format settings, GOP        : M=16, N=32
    Codec ID                    : 27
    Duration                    : 4 min 45 s
    Bit rate mode               : Variable
    Bit rate                    : 10.9 Mb/s
    Maximum bit rate            : 11.5 Mb/s
    Width                       : 1 280 pixels
    Height                      : 720 pixels
    Display aspect ratio        : 16:9
    Frame rate                  : 50.000 FPS
    Color space                 : YUV
    Chroma subsampling          : 4:2:0
    Bit depth                   : 8 bits
    Scan type                   : Progressive
    Bits/(Pixel*Frame)          : 0.236
    Stream size                 : 370 MiB (87%)
    Color range                 : Limited
    Color primaries             : BT.709
    Transfer characteristics    : BT.709
    Matrix coefficients         : BT.709
    
    Audio #1
    ID                          : 6020 (0x1784)
    Menu ID                     : 11100 (0x2B5C)
    Format                      : MPEG Audio
    Format version              : Version 1
    Format profile              : Layer 2
    Codec ID                    : 3
    Duration                    : 4 min 45 s
    Bit rate mode               : Constant
    Bit rate                    : 256 kb/s
    Channel(s)                  : 2 channels
    Sampling rate               : 48.0 kHz
    Compression mode            : Lossy
    Stream size                 : 8.72 MiB (2%)
    Language                    : German
    
    Audio #2
    ID                          : 6021 (0x1785)
    Menu ID                     : 11100 (0x2B5C)
    Format                      : MPEG Audio
    Format version              : Version 1
    Format profile              : Layer 2
    Codec ID                    : 3
    Duration                    : 4 min 45 s
    Bit rate mode               : Constant
    Bit rate                    : 256 kb/s
    Channel(s)                  : 2 channels
    Sampling rate               : 48.0 kHz
    Compression mode            : Lossy
    Delay relative to video     : 24 ms
    Stream size                 : 8.72 MiB (2%)
    
    Audio #3
    ID                          : 6022 (0x1786)
    Menu ID                     : 11100 (0x2B5C)
    Format                      : AC-3
    Format/Info                 : Audio Coding 3
    Format settings, Endianness : Big
    Codec ID                    : 6
    Duration                    : 4 min 45 s
    Bit rate mode               : Constant
    Bit rate                    : 448 kb/s
    Channel(s)                  : 2 channels
    Channel positions           : Front: L R
    Sampling rate               : 48.0 kHz
    Frame rate                  : 31.250 FPS (1536 spf)
    Bit depth                   : 16 bits
    Compression mode            : Lossy
    Delay relative to video     : 52 ms
    Stream size                 : 15.3 MiB (4%)
    Language                    : German
    Service kind                : Complete Main
    
    Text
    ID                          : 6031 (0x178F)
    Menu ID                     : 11100 (0x2B5C)
    Format                      : DVB Subtitle
    Codec ID                    : 6
    Duration                    : 4 min 35 s
    Delay relative to video     : 2 s 852 ms
    Language                    : German
    
    Other
    ID                          : 6030 (0x178E)-100
    Menu ID                     : 11100 (0x2B5C)
    Format                      : Teletext
    Language                    : German
    
    Hidden Content:
    You must either reply or click 'Like' to see the hidden information contained here.
     
    lypsyl, Gustavofl91, Nytro and 2 others like this.
  2. Loading...


  3. redfive

    redfive Member

    Joined:
    Mar 11, 2016
    Messages:
    79
    Likes Received:
    2
    thanks
     
  4. exterminador

    exterminador Well-Known Member

    Joined:
    Jul 3, 2016
    Messages:
    1,741
    Likes Received:
    158
  5. benja

    benja Well-Known Member

    Joined:
    Jan 8, 2014
    Messages:
    1,316
    Likes Received:
    83
    Thank you
     
  6. nknotz

    nknotz Member

    Joined:
    Jun 11, 2015
    Messages:
    67
    Likes Received:
    6
    thnaks
     
  7. multimediafm

    multimediafm Well-Known Member Donor

    Joined:
    Mar 27, 2014
    Messages:
    10,639
    Likes Received:
    633
  8. alexbl182

    alexbl182 Member

    Joined:
    May 26, 2015
    Messages:
    168
    Likes Received:
    10
    thanks
     
  9. Pavulon

    Pavulon Well-Known Member

    Joined:
    Mar 22, 2016
    Messages:
    3,464
    Likes Received:
    402
    thanks
     
  10. tenfour

    tenfour Member

    Joined:
    Dec 22, 2015
    Messages:
    407
    Likes Received:
    13
    Thanks!
     
  11. sideshow_bob

    sideshow_bob Well-Known Member

    Joined:
    Dec 20, 2013
    Messages:
    3,026
    Likes Received:
    189
  12. frisby

    frisby Well-Known Member

    Joined:
    Nov 21, 2015
    Messages:
    1,135
    Likes Received:
    118
    thanks
     
  13. Nytro

    Nytro Member

    Joined:
    Nov 25, 2015
    Messages:
    185
    Likes Received:
    23
    thansk bro
     
  14. apl3

    apl3 Member

    Joined:
    Jun 11, 2017
    Messages:
    562
    Likes Received:
    20
  15. Gustavofl91

    Gustavofl91 Gustavofl

    Joined:
    May 11, 2017
    Messages:
    345
    Likes Received:
    19
  16. lypsyl

    lypsyl Member

    Joined:
    Mar 1, 2016
    Messages:
    363
    Likes Received:
    12