HDTV Katy Perry - Part of Me (Le Grand Journal la suite) 2012.03.20 1080i

Discussion in 'HD Live Performances' started by hanshermann, Dec 7, 2017.

  1. hanshermann

    hanshermann Well-Known Member Uploader

    Joined:
    Aug 24, 2016
    Messages:
    7,245
    Likes Received:
    12,552
    [​IMG]

    Katy Perry - Part of Me (Le Grand Journal la suite) 2012.03.20 1080i

    Code:
    General
    ID                          : 1 (0x1)
    Complete name               : 2012.03.20 - Part of Me (Le Grand Journal la suite) (2).ts
    Format                      : MPEG-TS
    File size                   : 354 MiB
    Duration                    : 3 min 58 s
    Overall bit rate mode       : Variable
    Overall bit rate            : 12.4 Mb/s
    Maximum Overall bit rate    : 35.5 Mb/s
    
    Video
    ID                          : 4113 (0x1011)
    Menu ID                     : 1 (0x1)
    Format                      : AVC
    Format/Info                 : Advanced Video Codec
    Format profile              : Main@L4
    Format settings, CABAC      : Yes
    Format settings, ReFrames   : 4 frames
    Format settings, GOP        : M=8, N=24
    Codec ID                    : 27
    Duration                    : 3 min 58 s
    Bit rate mode               : Variable
    Bit rate                    : 11.6 Mb/s
    Maximum bit rate            : 40.0 Mb/s
    Width                       : 1 920 pixels
    Height                      : 1 080 pixels
    Display aspect ratio        : 16:9
    Frame rate                  : 25.000 FPS
    Color space                 : YUV
    Chroma subsampling          : 4:2:0
    Bit depth                   : 8 bits
    Scan type                   : Interlaced
    Scan type, store method     : Separated fields
    Scan order                  : Top Field First
    Bits/(Pixel*Frame)          : 0.224
    Stream size                 : 330 MiB (93%)
    Color range                 : Limited
    Color primaries             : BT.709
    Transfer characteristics    : BT.709
    Matrix coefficients         : BT.709
    
    Audio
    ID                          : 4352 (0x1100)
    Menu ID                     : 1 (0x1)
    Format                      : AC-3
    Format/Info                 : Audio Coding 3
    Format settings, Endianness : Big
    Codec ID                    : 129
    Duration                    : 3 min 58 s
    Bit rate mode               : Constant
    Bit rate                    : 192 kb/s
    Channel(s)                  : 2 channels
    Channel positions           : Front: L R
    Sampling rate               : 48.0 kHz
    Frame rate                  : 31.250 FPS (1536 spf)
    Bit depth                   : 16 bits
    Compression mode            : Lossy
    Delay relative to video     : 9 ms
    Stream size                 : 5.47 MiB (2%)
    Language                    : French
    Service kind                : Complete Main
    
    
    Hidden Content:
    You must either reply or click 'Like' to see the hidden information contained here.
     
  2. Loading...


  3. xabieroyo

    xabieroyo Active Member

    Joined:
    May 30, 2017
    Messages:
    175
    Likes Received:
    103
  4. benja

    benja Well-Known Member

    Joined:
    Jan 8, 2014
    Messages:
    1,620
    Likes Received:
    105
    Thank you
     
  5. multimediafm

    multimediafm Well-Known Member Donor

    Joined:
    Mar 27, 2014
    Messages:
    13,498
    Likes Received:
    1,063
  6. Pavulon

    Pavulon Well-Known Member Donor

    Joined:
    Mar 22, 2016
    Messages:
    4,643
    Likes Received:
    1,017
    thank you :)
     
  7. 12wurzel

    12wurzel Active Member

    Joined:
    Oct 16, 2016
    Messages:
    543
    Likes Received:
    37
    thanks
     
  8. tenfour

    tenfour Member

    Joined:
    Dec 22, 2015
    Messages:
    508
    Likes Received:
    16
    Thanks!
     
  9. frisby

    frisby Well-Known Member

    Joined:
    Nov 21, 2015
    Messages:
    1,649
    Likes Received:
    134
    thanks
     
  10. apl3

    apl3 Well-Known Member

    Joined:
    Jun 11, 2017
    Messages:
    1,214
    Likes Received:
    35
    thanks
     
  11. orgulo

    orgulo Active Member

    Joined:
    Jan 16, 2017
    Messages:
    956
    Likes Received:
    47
    thanks
     
  12. Gustavofl91

    Gustavofl91 Gustavofl

    Joined:
    May 11, 2017
    Messages:
    782
    Likes Received:
    32
  13. PetGir

    PetGir Member

    Joined:
    May 18, 2017
    Messages:
    32
    Likes Received:
    0
    Thanks!! Always happy with Katy video
     
  14. lypsyl

    lypsyl Member

    Joined:
    Mar 1, 2016
    Messages:
    368
    Likes Received:
    12
    thanks
     
  15. ulygatore

    ulygatore Well-Known Member

    Joined:
    Jun 29, 2017
    Messages:
    1,236
    Likes Received:
    62
  16. John Dee

    John Dee Member

    Joined:
    Jun 27, 2015
    Messages:
    157
    Likes Received:
    6
  17. Fabien Fournier

    Fabien Fournier Active Member

    Joined:
    Nov 14, 2013
    Messages:
    650
    Likes Received:
    74
    Thanks
     
  18. Kevin

    Kevin Member

    Joined:
    May 28, 2014
    Messages:
    120
    Likes Received:
    8
    thanksss
    thanksss
     
  19. D3mon86

    D3mon86 Member

    Joined:
    Dec 19, 2016
    Messages:
    906
    Likes Received:
    18
    thanks
     
  20. John

    John Member

    Joined:
    Oct 30, 2013
    Messages:
    501
    Likes Received:
    5
    Thanks
     
  21. MACHADO

    MACHADO Active Member

    Joined:
    Jun 12, 2017
    Messages:
    549
    Likes Received:
    37
    GRACIAS