HDTV Katy Perry - Part of Me (Le Grand Journal la suite) 2012.03.20 1080i

Discussion in 'HD Live Performances' started by hanshermann, Dec 7, 2017.

  1. hanshermann

    hanshermann Well-Known Member Uploader

    Joined:
    Aug 24, 2016
    Messages:
    5,037
    Likes Received:
    3,799
    [​IMG]

    Katy Perry - Part of Me (Le Grand Journal la suite) 2012.03.20 1080i

    Code:
    General
    ID                          : 1 (0x1)
    Complete name               : 2012.03.20 - Part of Me (Le Grand Journal la suite) (2).ts
    Format                      : MPEG-TS
    File size                   : 354 MiB
    Duration                    : 3 min 58 s
    Overall bit rate mode       : Variable
    Overall bit rate            : 12.4 Mb/s
    Maximum Overall bit rate    : 35.5 Mb/s
    
    Video
    ID                          : 4113 (0x1011)
    Menu ID                     : 1 (0x1)
    Format                      : AVC
    Format/Info                 : Advanced Video Codec
    Format profile              : [email protected]
    Format settings, CABAC      : Yes
    Format settings, ReFrames   : 4 frames
    Format settings, GOP        : M=8, N=24
    Codec ID                    : 27
    Duration                    : 3 min 58 s
    Bit rate mode               : Variable
    Bit rate                    : 11.6 Mb/s
    Maximum bit rate            : 40.0 Mb/s
    Width                       : 1 920 pixels
    Height                      : 1 080 pixels
    Display aspect ratio        : 16:9
    Frame rate                  : 25.000 FPS
    Color space                 : YUV
    Chroma subsampling          : 4:2:0
    Bit depth                   : 8 bits
    Scan type                   : Interlaced
    Scan type, store method     : Separated fields
    Scan order                  : Top Field First
    Bits/(Pixel*Frame)          : 0.224
    Stream size                 : 330 MiB (93%)
    Color range                 : Limited
    Color primaries             : BT.709
    Transfer characteristics    : BT.709
    Matrix coefficients         : BT.709
    
    Audio
    ID                          : 4352 (0x1100)
    Menu ID                     : 1 (0x1)
    Format                      : AC-3
    Format/Info                 : Audio Coding 3
    Format settings, Endianness : Big
    Codec ID                    : 129
    Duration                    : 3 min 58 s
    Bit rate mode               : Constant
    Bit rate                    : 192 kb/s
    Channel(s)                  : 2 channels
    Channel positions           : Front: L R
    Sampling rate               : 48.0 kHz
    Frame rate                  : 31.250 FPS (1536 spf)
    Bit depth                   : 16 bits
    Compression mode            : Lossy
    Delay relative to video     : 9 ms
    Stream size                 : 5.47 MiB (2%)
    Language                    : French
    Service kind                : Complete Main
    
    
    Hidden Content:
    You must either reply or click 'Like' to see the hidden information contained here.
     
    lypsyl, PetGir, Gustavofl91 and 4 others like this.
  2. Loading...


  3. xabieroyo

    xabieroyo Active Member

    Joined:
    May 30, 2017
    Messages:
    116
    Likes Received:
    80
  4. benja

    benja Well-Known Member

    Joined:
    Jan 8, 2014
    Messages:
    1,317
    Likes Received:
    83
    Thank you
     
  5. multimediafm

    multimediafm Well-Known Member Donor

    Joined:
    Mar 27, 2014
    Messages:
    10,639
    Likes Received:
    633
  6. Pavulon

    Pavulon Well-Known Member

    Joined:
    Mar 22, 2016
    Messages:
    3,464
    Likes Received:
    402
    thank you :)
     
  7. 12wurzel

    12wurzel Member

    Joined:
    Oct 16, 2016
    Messages:
    249
    Likes Received:
    22
    thanks
     
  8. tenfour

    tenfour Member

    Joined:
    Dec 22, 2015
    Messages:
    407
    Likes Received:
    13
    Thanks!
     
  9. frisby

    frisby Well-Known Member

    Joined:
    Nov 21, 2015
    Messages:
    1,135
    Likes Received:
    118
    thanks
     
  10. apl3

    apl3 Member

    Joined:
    Jun 11, 2017
    Messages:
    562
    Likes Received:
    20
  11. orgulo

    orgulo Active Member

    Joined:
    Jan 16, 2017
    Messages:
    851
    Likes Received:
    38
    thanks
     
  12. Gustavofl91

    Gustavofl91 Gustavofl

    Joined:
    May 11, 2017
    Messages:
    345
    Likes Received:
    19
  13. PetGir

    PetGir Member

    Joined:
    May 18, 2017
    Messages:
    32
    Likes Received:
    0
    Thanks!! Always happy with Katy video
     
  14. lypsyl

    lypsyl Member

    Joined:
    Mar 1, 2016
    Messages:
    363
    Likes Received:
    12
  15. ulygatore

    ulygatore Active Member

    Joined:
    Jun 29, 2017
    Messages:
    916
    Likes Received:
    36