HDTV Katy Perry - Part of Me (Echo Awards) 2012.03.22 720p

Discussion in 'HD Live Performances' started by hanshermann, Dec 7, 2017.

  1. hanshermann

    hanshermann Well-Known Member Uploader

    Joined:
    Aug 24, 2016
    Messages:
    5,037
    Likes Received:
    3,799
    [​IMG]

    Katy Perry - Part of Me (Echo Awards) 2012.03.22 720p

    Code:
    General
    ID                          : 1 (0x1)
    Complete name               : Katy Perry - Part of Me (Echo Awards) 2012.03.22 720p\2012.03.22 - Part of Me (Echo Awards).ts
    Format                      : MPEG-TS
    File size                   : 378 MiB
    Duration                    : 4 min 17 s
    Overall bit rate mode       : Variable
    Overall bit rate            : 12.3 Mb/s
    Maximum Overall bit rate    : 35.5 Mb/s
    
    Video
    ID                          : 4113 (0x1011)
    Menu ID                     : 1 (0x1)
    Format                      : AVC
    Format/Info                 : Advanced Video Codec
    Format profile              : [email protected]
    Format settings, CABAC      : Yes
    Format settings, ReFrames   : 5 frames
    Codec ID                    : 27
    Duration                    : 4 min 17 s
    Bit rate mode               : Variable
    Bit rate                    : 11.2 Mb/s
    Maximum bit rate            : 11.5 Mb/s
    Width                       : 1 280 pixels
    Height                      : 720 pixels
    Display aspect ratio        : 16:9
    Frame rate                  : 50.000 FPS
    Standard                    : PAL
    Color space                 : YUV
    Chroma subsampling          : 4:2:0
    Bit depth                   : 8 bits
    Scan type                   : Progressive
    Bits/(Pixel*Frame)          : 0.244
    Stream size                 : 345 MiB (91%)
    Color range                 : Limited
    Color primaries             : BT.709
    Transfer characteristics    : BT.709
    Matrix coefficients         : BT.709
    
    Audio
    ID                          : 4352 (0x1100)
    Menu ID                     : 1 (0x1)
    Format                      : AC-3
    Format/Info                 : Audio Coding 3
    Format settings, Endianness : Big
    Codec ID                    : 129
    Duration                    : 4 min 17 s
    Bit rate mode               : Constant
    Bit rate                    : 448 kb/s
    Channel(s)                  : 2 channels
    Channel positions           : Front: L R
    Sampling rate               : 48.0 kHz
    Frame rate                  : 31.250 FPS (1536 spf)
    Bit depth                   : 16 bits
    Compression mode            : Lossy
    Stream size                 : 13.8 MiB (4%)
    Service kind                : Complete Main
    
    Hidden Content:
    You must either reply or click 'Like' to see the hidden information contained here.
     
    Nytro likes this.
  2. Loading...


  3. ben_richards

    ben_richards Active Member

    Joined:
    Feb 2, 2016
    Messages:
    320
    Likes Received:
    37
    What's different in the special version?
     
  4. benja

    benja Well-Known Member

    Joined:
    Jan 8, 2014
    Messages:
    1,316
    Likes Received:
    83
    Thank you
     
  5. Pavulon

    Pavulon Well-Known Member

    Joined:
    Mar 22, 2016
    Messages:
    3,464
    Likes Received:
    402
    thanks
     
  6. frisby

    frisby Well-Known Member

    Joined:
    Nov 21, 2015
    Messages:
    1,135
    Likes Received:
    118
    thank you
     
  7. Nytro

    Nytro Member

    Joined:
    Nov 25, 2015
    Messages:
    185
    Likes Received:
    23
    thanks bro
     
  8. apl3

    apl3 Member

    Joined:
    Jun 11, 2017
    Messages:
    562
    Likes Received:
    20