HDTV Katy Perry - Part of Me (American Idol 04.26.12) S11E32 720p DD5.1 ALANiS

Discussion in 'HD Live Performances' started by hanshermann, Dec 7, 2017.

  1. hanshermann

    hanshermann Well-Known Member Uploader

    Joined:
    Aug 24, 2016
    Messages:
    5,037
    Likes Received:
    3,799
    [​IMG]

    Katy Perry - Part of Me (American Idol 04.26.12) S11E32 720p DD5.1 ALANiS

    Code:
    General
    ID                          : 1 (0x1)
    Complete name               : Katy Perry - Part of Me (American Idol 04.26.12) S11E32 720p DD5.1 448kbps-ALANiS.ts
    Format                      : MPEG-TS
    File size                   : 424 MiB
    Duration                    : 4 min 11 s
    Overall bit rate mode       : Variable
    Overall bit rate            : 14.1 Mb/s
    Movie name                  : AMERICAN IDOL
    Law rating                  : TV-PG (DL)
    
    Video
    ID                          : 33 (0x21)
    Menu ID                     : 1 (0x1)
    Format                      : MPEG Video
    Format version              : Version 2
    Format profile              : [email protected]
    Format settings, BVOP       : Yes
    Format settings, Matrix     : Default
    Format settings, GOP        : Variable
    Codec ID                    : 2
    Duration                    : 4 min 11 s
    Bit rate mode               : Variable
    Bit rate                    : 13.0 Mb/s
    Maximum bit rate            : 38.8 Mb/s
    Width                       : 1 280 pixels
    Height                      : 720 pixels
    Display aspect ratio        : 16:9
    Active Format Description   : Letterbox 16:9 image
    Frame rate                  : 59.940 (60000/1001) FPS
    Color space                 : YUV
    Chroma subsampling          : 4:2:0
    Bit depth                   : 8 bits
    Scan type                   : Progressive
    Compression mode            : Lossy
    Bits/(Pixel*Frame)          : 0.235
    Time code of first frame    : 00:00:00;00
    Time code source            : Group of pictures header
    GOP, Open/Closed            : Open
    GOP, Open/Closed of first f : Closed
    Stream size                 : 389 MiB (92%)
    
    Audio
    ID                          : 36 (0x24)
    Menu ID                     : 1 (0x1)
    Format                      : AC-3
    Format/Info                 : Audio Coding 3
    Format settings, Endianness : Big
    Codec ID                    : 129
    Duration                    : 4 min 11 s
    Bit rate mode               : Constant
    Bit rate                    : 448 kb/s
    Channel(s)                  : 6 channels
    Channel positions           : Front: L C R, Side: L R, LFE
    Sampling rate               : 48.0 kHz
    Frame rate                  : 31.250 FPS (1536 spf)
    Bit depth                   : 16 bits
    Compression mode            : Lossy
    Stream size                 : 13.4 MiB (3%)
    Language                    : English
    Service kind                : Complete Main
    Hidden Content:
    You must either reply or click 'Like' to see the hidden information contained here.
     
  2. Loading...


  3. multimediafm

    multimediafm Well-Known Member Donor

    Joined:
    Mar 27, 2014
    Messages:
    10,639
    Likes Received:
    633
  4. Pavulon

    Pavulon Well-Known Member

    Joined:
    Mar 22, 2016
    Messages:
    3,464
    Likes Received:
    402
    thank you :)
     
  5. frisby

    frisby Well-Known Member

    Joined:
    Nov 21, 2015
    Messages:
    1,135
    Likes Received:
    118
    thanks
     
  6. Nytro

    Nytro Member

    Joined:
    Nov 25, 2015
    Messages:
    185
    Likes Received:
    23
    thanks dude
     
  7. apl3

    apl3 Member

    Joined:
    Jun 11, 2017
    Messages:
    562
    Likes Received:
    20
  8. orgulo

    orgulo Active Member

    Joined:
    Jan 16, 2017
    Messages:
    851
    Likes Received:
    38
    thanks
     
  9. JazzyJay

    JazzyJay New Member

    Joined:
    Dec 3, 2017
    Messages:
    20
    Likes Received:
    0
  10. Gustavofl91

    Gustavofl91 Gustavofl

    Joined:
    May 11, 2017
    Messages:
    345
    Likes Received:
    19
  11. lypsyl

    lypsyl Member

    Joined:
    Mar 1, 2016
    Messages:
    363
    Likes Received:
    12
  12. mat2103

    mat2103 Member

    Joined:
    Dec 6, 2016
    Messages:
    458
    Likes Received:
    18
  13. Yehonatan643456

    Yehonatan643456 Member

    Joined:
    Apr 10, 2017
    Messages:
    219
    Likes Received:
    0