FEED Katy Perry - Medley (MTV Europe Music Awards 2009) HDTV-1080i

Discussion in 'HD Live Performances' started by danixat, Mar 23, 2020.

  1. danixat

    danixat Katycat ^-^ Capper V . I . P. Uploader Archiver Donor

    Joined:
    Feb 23, 2014
    Messages:
    1,303
    Likes Received:
    10,199
    [​IMG]
    Code:
    General
    ID                             : 1 (0x1)
    Complete name                  : F:\2009.11.05 - MTV Europe Music Awards.ts
    Format                         : MPEG-TS
    File size                      : 1.04 GiB
    Duration                       : 3 min 59 s
    Overall bit rate mode          : Variable
    Overall bit rate               : 37.2 Mb/s
    
    Video
    ID                             : 308 (0x134)
    Menu ID                        : 1 (0x1)
    Format                         : MPEG Video
    Format version                 : Version 2
    Format profile                 : Main@High
    Format settings, BVOP          : Yes
    Format settings, Matrix        : Custom
    Format settings, GOP           : M=3, N=12
    Format settings, picture struc : Frame
    Codec ID                       : 2
    Duration                       : 3 min 58 s
    Bit rate mode                  : Constant
    Bit rate                       : 35.0 Mb/s
    Maximum bit rate               : 36.0 Mb/s
    Width                          : 1 920 pixels
    Height                         : 1 080 pixels
    Display aspect ratio           : 16:9
    Frame rate                     : 25.000 FPS
    Color space                    : YUV
    Chroma subsampling             : 4:2:0
    Bit depth                      : 8 bits
    Scan type                      : Interlaced
    Scan order                     : Top Field First
    Compression mode               : Lossy
    Bits/(Pixel*Frame)             : 0.675
    Time code of first frame       : 00:14:12:04
    Time code source               : Group of pictures header
    GOP, Open/Closed               : Open
    Stream size                    : 996 MiB (94%)
    
    Audio
    ID                             : 256 (0x100)
    Menu ID                        : 1 (0x1)
    Format                         : MPEG Audio
    Format version                 : Version 1
    Format profile                 : Layer 2
    Codec ID                       : 4
    Duration                       : 3 min 58 s
    Bit rate mode                  : Constant
    Bit rate                       : 384 kb/s
    Channel(s)                     : 2 channels
    Sampling rate                  : 48.0 kHz
    Compression mode               : Lossy
    Delay relative to video        : -488 ms
    Stream size                    : 10.9 MiB (1%)
    Language                       : int
    
    Menu
    ID                             : 32 (0x20)
    Menu ID                        : 1 (0x1)
    List                           : 308 (0x134) (MPEG Video) / 256 (0x100) (MPEG Audio, int)
    Language                       :  / int
    Maximum bit rate               : 40957200
    Download:
    Hidden Content:
    You must either reply or click 'Like' to see the hidden information contained here.
     
  2. Loading...


  3. benja

    benja Well-Known Member

    Joined:
    Jan 8, 2014
    Messages:
    2,031
    Likes Received:
    157
    Thank You
     
  4. MichelleBright

    MichelleBright Well-Known Member

    Joined:
    Jul 20, 2019
    Messages:
    1,220
    Likes Received:
    195
  5. Grizzly3101

    Grizzly3101 Active Member

    Joined:
    Nov 30, 2016
    Messages:
    238
    Likes Received:
    35
    Thanks
     
  6. wasper

    wasper Active Member

    Joined:
    Jan 8, 2018
    Messages:
    982
    Likes Received:
    60
    Thanks
     
  7. nino.navy

    nino.navy Well-Known Member

    Joined:
    May 30, 2014
    Messages:
    4,401
    Likes Received:
    345
    thanks so much
     
  8. neb010203

    neb010203 Well-Known Member

    Joined:
    Sep 6, 2018
    Messages:
    1,826
    Likes Received:
    73
  9. Jenkins

    Jenkins Well-Known Member

    Joined:
    May 30, 2019
    Messages:
    24,612
    Likes Received:
    640
    THANKS
     
  10. Pham tuan

    Pham tuan Well-Known Member

    Joined:
    Dec 23, 2018
    Messages:
    1,336
    Likes Received:
    146
    thanks
     
  11. hanyusen1989

    hanyusen1989 Active Member

    Joined:
    Oct 1, 2016
    Messages:
    707
    Likes Received:
    45
    thank you so much
     
  12. mizdot

    mizdot Well-Known Member

    Joined:
    Nov 13, 2014
    Messages:
    3,942
    Likes Received:
    205
    tnx man
     
  13. tetard

    tetard Well-Known Member V . I . P.

    Joined:
    Mar 29, 2014
    Messages:
    4,624
    Likes Received:
    6,226
    Thank you
     
  14. Choppywaters

    Choppywaters Member

    Joined:
    Sep 14, 2019
    Messages:
    159
    Likes Received:
    6
  15. GPL4EVER

    GPL4EVER Member

    Joined:
    Oct 19, 2013
    Messages:
    291
    Likes Received:
    19
    Thanks, but how do I download your videos?
     
    Last edited: Apr 27, 2020
  16. antoniojoseguizilini

    antoniojoseguizilini Well-Known Member

    Joined:
    Dec 2, 2016
    Messages:
    1,574
    Likes Received:
    105
    thanks