HDTV Katy Perry - Live At The V Festival 2009-H264-1080i-Luco

Discussion in 'HD Live Performances' started by danixat, Mar 21, 2020.

  1. danixat

    danixat Katycat ^-^ Capper V . I . P. Uploader Archiver Donor

    Joined:
    Feb 23, 2014
    Messages:
    1,303
    Likes Received:
    10,199
    [​IMG]
    Code:
    General
    ID                             : 3226 (0xC9A)
    Complete name                  : F:\Katy Perry - Live At The V Festival 2009-H264-1080i-Luco.ts
    Format                         : MPEG-TS
    File size                      : 1.07 GiB
    Duration                       : 26 min 55 s
    Overall bit rate mode          : Variable
    Overall bit rate               : 5 686 kb/s
    
    Video
    ID                             : 1401 (0x579)
    Menu ID                        : 5604 (0x15E4)
    Format                         : AVC
    Format/Info                    : Advanced Video Codec
    Format profile                 : Main@L4
    Format settings, CABAC         : Yes
    Format settings, RefFrames     : 2 frames
    Codec ID                       : 27
    Duration                       : 26 min 55 s
    Bit rate                       : 5 147 kb/s
    Width                          : 1 440 pixels
    Height                         : 1 080 pixels
    Display aspect ratio           : 16:9
    Frame rate                     : 25.000 FPS
    Color space                    : YUV
    Chroma subsampling             : 4:2:0
    Bit depth                      : 8 bits
    Scan type                      : MBAFF
    Scan type, store method        : Interleaved fields
    Scan order                     : Top Field First
    Bits/(Pixel*Frame)             : 0.132
    Stream size                    : 991 MiB (90%)
    Color range                    : Limited
    Color primaries                : BT.709
    Transfer characteristics       : BT.709
    Matrix coefficients            : BT.709
    
    Audio
    ID                             : 1403 (0x57B)
    Menu ID                        : 5604 (0x15E4)
    Format                         : MPEG Audio
    Format version                 : Version 1
    Format profile                 : Layer 2
    Codec ID                       : 4
    Duration                       : 26 min 55 s
    Bit rate mode                  : Constant
    Bit rate                       : 256 kb/s
    Channel(s)                     : 2 channels
    Sampling rate                  : 48.0 kHz
    Compression mode               : Lossy
    Delay relative to video        : 152 ms
    Stream size                    : 49.3 MiB (5%)
    Download:
    Hidden Content:
    You must either reply or click 'Like' to see the hidden information contained here.
     
  2. Loading...


  3. plwww

    plwww Well-Known Member

    Joined:
    May 28, 2016
    Messages:
    1,120
    Likes Received:
    75
    thanks
     
  4. MichelleBright

    MichelleBright Well-Known Member

    Joined:
    Jul 20, 2019
    Messages:
    1,220
    Likes Received:
    195
    Appreciate it :victory::victory::):)
     
  5. dimrous22

    dimrous22 Well-Known Member

    Joined:
    Sep 11, 2016
    Messages:
    1,705
    Likes Received:
    489
    omg iconic
     
  6. KaiKawaii

    KaiKawaii Well-Known Member Uploader

    Joined:
    Jun 1, 2017
    Messages:
    825
    Likes Received:
    1,794
  7. Jenkins

    Jenkins Well-Known Member

    Joined:
    May 30, 2019
    Messages:
    24,612
    Likes Received:
    640
    THANKS
     
  8. perry

    perry New Member

    Joined:
    Dec 15, 2018
    Messages:
    7
    Likes Received:
    0
    FDFSGFS
     
  9. mizdot

    mizdot Well-Known Member

    Joined:
    Nov 13, 2014
    Messages:
    3,942
    Likes Received:
    205
    tnx man
     
  10. maxkeiser

    maxkeiser Well-Known Member Uploader

    Joined:
    Aug 24, 2016
    Messages:
    8,096
    Likes Received:
    23,005
    whats that
     
  11. tetard

    tetard Well-Known Member V . I . P.

    Joined:
    Mar 29, 2014
    Messages:
    4,624
    Likes Received:
    6,226
    Thank you