FEED Katy Perry - iTunes Festival 2013 - MPEG4 420 1080p - UPLINK [SRSL]

Discussion in 'HD Live Performances' started by GnuHD, Mar 16, 2017.

  1. GnuHD

    GnuHD Well-Known Member Uploader Donor

    Joined:
    Feb 16, 2016
    Messages:
    1,371
    Likes Received:
    2,007

    2013.09.30 - Katy Perry at iTunes Festival 2013, Roundhouse, London, England

    [​IMG]
    General
    ID : 1 (0x1)
    Complete name : C:\Katy Perry - iTunes Festival - MPEG4 420 1080p - UPLINK [SRSL].ts
    Format : MPEG-TS
    File size : 7.37 GiB
    Duration : 49mn 11s
    Overall bit rate mode : Variable
    Overall bit rate : 21.4 Mbps
    Maximum Overall bit rate : 35.5 Mbps

    Video
    ID : 4113 (0x1011)
    Menu ID : 1 (0x1)
    Format : AVC
    Format/Info : Advanced Video Codec
    Format profile : High@L4
    Format settings, CABAC : Yes
    Format settings, ReFrames : 4 frames
    Codec ID : 27
    Duration : 49mn 11s
    Bit rate mode : Variable
    Bit rate : 19.4 Mbps
    Maximum bit rate : 40.0 Mbps
    Width : 1 920 pixels
    Height : 1 080 pixels
    Display aspect ratio : 16:9
    Frame rate : 25.000 fps
    Color space : YUV
    Chroma subsampling : 4:2:0
    Bit depth : 8 bits
    Scan type : Interlaced
    Scan order : Top Field First
    Bits/(Pixel*Frame) : 0.373
    Stream size : 6.65 GiB (90%)
    Color range : Limited
    Color primaries : BT.709
    Transfer characteristics : BT.709
    Matrix coefficients : BT.709

    Audio #1
    ID : 4352 (0x1100)
    Menu ID : 1 (0x1)
    Format : MPEG Audio
    Format version : Version 1
    Format profile : Layer 2
    Codec ID : 4
    Duration : 49mn 11s
    Bit rate mode : Constant
    Bit rate : 256 Kbps
    Channel(s) : 2 channels
    Sampling rate : 48.0 KHz
    Compression mode : Lossy
    Delay relative to video : 23ms
    Stream size : 90.1 MiB (1%)
    Language : English

    Audio #2
    ID : 4353 (0x1101)
    Menu ID : 1 (0x1)
    Format : MPEG Audio
    Format version : Version 1
    Format profile : Layer 2
    Codec ID : 4
    Duration : 49mn 11s
    Bit rate mode : Constant
    Bit rate : 256 Kbps
    Channel(s) : 2 channels
    Sampling rate : 48.0 KHz
    Compression mode : Lossy
    Delay relative to video : 15ms
    Stream size : 90.1 MiB (1%)
    Language : English

    Audio #3
    ID : 4354 (0x1102)
    Menu ID : 1 (0x1)
    Format : MPEG Audio
    Format version : Version 1
    Format profile : Layer 2
    Codec ID : 4
    Duration : 49mn 11s
    Bit rate mode : Constant
    Bit rate : 256 Kbps
    Channel(s) : 2 channels
    Sampling rate : 48.0 KHz
    Compression mode : Lossy
    Delay relative to video : 7ms
    Stream size : 90.1 MiB (1%)
    Language : English

    Audio #4
    ID : 4355 (0x1103)
    Menu ID : 1 (0x1)
    Format : MPEG Audio
    Format version : Version 1
    Format profile : Layer 2
    Codec ID : 4
    Duration : 49mn 11s
    Bit rate mode : Constant
    Bit rate : 256 Kbps
    Channel(s) : 2 channels
    Sampling rate : 48.0 KHz
    Compression mode : Lossy
    Delay relative to video : 23ms
    Stream size : 90.1 MiB (1%)
    Language : English

    Tracklist:
    01 - Walking on Air
    02 - California Gurls
    03 - Teenage Dream
    04 - I Kissed a Girl
    05 - Dark Horse
    06 - Part of Me
    07 - By the Grace of God
    08 - Wide Awake
    09 - Firework
    10 - Roar

    MediaInfo:
    Video: MPEG4 Video (H264) 1920x1080 25fps [V: h264 high L4.0, yuv420p, 1920x1080]
    Audio: MPEG Audio 48000Hz stereo 256kbps [A: English [eng] (mp2, 48000 Hz, stereo, 256 kb/s)]
    Audio: MPEG Audio 48000Hz stereo 256kbps [A: English [eng] (mp2, 48000 Hz, stereo, 256 kb/s)]
    Audio: MPEG Audio 48000Hz stereo 256kbps [A: English [eng] (mp2, 48000 Hz, stereo, 256 kb/s)]
    Audio: MPEG Audio 48000Hz stereo 256kbps [A: English [eng] (mp2, 48000 Hz, stereo, 256 kb/s)]

    Download Link:
    Hidden Content:
    You must reply before you can see the hidden data contained here.
     
    Last edited: Nov 24, 2017
    polydown, letroulette, phrael and 8 others like this.
  2. Loading...


  3. nickiexclusive

    nickiexclusive Video Maniac V . I . P. Uploader

    Joined:
    Sep 23, 2014
    Messages:
    2,868
    Likes Received:
    14,351
    thank you for FEED version,
    please if its possible to cut by the grace of god and wide awake part :super:
     
    GnuHD likes this.
  4. exterminador

    exterminador Well-Known Member

    Joined:
    Jul 3, 2016
    Messages:
    2,875
    Likes Received:
    256
    Thanks!
     
    GnuHD likes this.
  5. miyara

    miyara My reputation died in this forum V . I . P. Uploader

    Joined:
    Feb 21, 2016
    Messages:
    1,029
    Likes Received:
    4,554
    Thanks so much 4 the feed version my friend. :love:
     
    GnuHD likes this.
  6. benja

    benja Well-Known Member

    Joined:
    Jan 8, 2014
    Messages:
    1,715
    Likes Received:
    114
    Thank you
     
  7. rako601

    rako601 Member

    Joined:
    Apr 8, 2016
    Messages:
    166
    Likes Received:
    23
    Thanks
     
    GnuHD likes this.
  8. Danny82

    Danny82 Well-Known Member

    Joined:
    May 28, 2016
    Messages:
    2,703
    Likes Received:
    980
    OMG!!! :greedy::greedy:

    Thank's for shared!!!
     
    GnuHD likes this.
  9. Nytro

    Nytro Member

    Joined:
    Nov 25, 2015
    Messages:
    288
    Likes Received:
    24
    thanks patiently waiting for it :)
     
    GnuHD likes this.
  10. GnuHD

    GnuHD Well-Known Member Uploader Donor

    Joined:
    Feb 16, 2016
    Messages:
    1,371
    Likes Received:
    2,007
    I finished upload it .:)
     
  11. Maura

    Maura Well-Known Member

    Joined:
    Apr 7, 2014
    Messages:
    3,489
    Likes Received:
    114
    Thanks
     
  12. totp

    totp Member

    Joined:
    Nov 22, 2016
    Messages:
    90
    Likes Received:
    5
    Thanks
     
    GnuHD likes this.
  13. hanshermann

    hanshermann Well-Known Member Uploader

    Joined:
    Aug 24, 2016
    Messages:
    7,837
    Likes Received:
    17,154
    wahts taht
     
  14. dmk001

    dmk001 Member

    Joined:
    Jan 2, 2016
    Messages:
    30
    Likes Received:
    2
    thank you
     
  15. frisby

    frisby Well-Known Member

    Joined:
    Nov 21, 2015
    Messages:
    1,879
    Likes Received:
    140
    thanks
     
  16. ben_richards

    ben_richards Active Member

    Joined:
    Feb 2, 2016
    Messages:
    496
    Likes Received:
    53
    Thank you!
     
  17. yanpj7

    yanpj7 Member

    Joined:
    Jan 4, 2015
    Messages:
    384
    Likes Received:
    24
    Thanks!
     
  18. glamjam

    glamjam Member

    Joined:
    Dec 17, 2013
    Messages:
    145
    Likes Received:
    12
    thank u
     
  19. Vinny

    Vinny Well-Known Member

    Joined:
    Dec 26, 2013
    Messages:
    4,306
    Likes Received:
    59
    Thanks!
     
  20. nitrocell

    nitrocell
    Administrator
    Staff Member AdMiN Capper V . I . P.

    Joined:
    Nov 18, 2013
    Messages:
    1,167
    Likes Received:
    8,574
    Mirror link added :wink:
     
    sk8erboi1106 likes this.
  21. Dream66

    Dream66 Active Member

    Joined:
    Jan 24, 2016
    Messages:
    870
    Likes Received:
    191
    Thank you :happy: