Katy Perry - I Kissed A Girl (MTVIDOL-1080i-DD2.0-Djodjara)-HDMania

Discussion in 'MTV IDOL' started by Djodjara, May 27, 2015.

  1. Djodjara

    Djodjara Gwen Fan Capper

    Joined:
    Sep 6, 2014
    Messages:
    733
    Likes Received:
    1,206
    Katy Perry - I Kissed A Girl (MTV Idol-1080i-Djodjara)-HDMania

    [​IMG]
    [​IMG]

    General:
    ID : 1 (0x1)
    Format : MPEG-TS
    File size : 137 MiB
    Duration : 3mn 4s
    Overall bit rate mode : Variable
    Overall bit rate : 6 236 Kbps

    Video:
    ID : 310 (0x136)
    Menu ID : 1 (0x1)
    Format : AVC
    Format/Info : Advanced Video Codec
    Format profile : [email protected]
    Format settings, CABAC : Yes
    Format settings, ReFrames : 4 frames
    Codec ID : 27
    Duration : 3mn 4s
    Bit rate : 5 734 Kbps
    Width : 1 920 pixels
    Height : 1 080 pixels
    Display aspect ratio : 16:9
    Frame rate : 25.000 fps
    Standard : Component
    Color space : YUV
    Chroma subsampling : 4:2:0
    Bit depth : 8 bits
    Scan type : MBAFF
    Scan order : Top Field First
    Bits/(Pixel*Frame) : 0.111
    Stream size : 126 MiB (92%)
    Color primaries : BT.709
    Transfer characteristics : BT.709
    Matrix coefficients : BT.709
    Color range : Limited

    Audio:
    ID : 321 (0x141)
    Menu ID : 1 (0x1)
    Format : AC-3
    Format/Info : Audio Coding 3
    Mode extension : CM (complete main)
    Format settings, Endianness : Big
    Codec ID : 6
    Duration : 3mn 4s
    Bit rate mode : Constant
    Bit rate : 192 Kbps
    Channel(s) : 2 channels
    Channel positions : Front: L R
    Sampling rate : 48.0 KHz
    Bit depth : 16 bits
    Compression mode : Lossy
    Stream size : 4.22 MiB (3%)
    Language : French

    Hidden Content:
    You must reply before you can see the hidden data contained here.
     
    Dreamer, CELOBRAZiL, rhea and 3 others like this.
  2. Loading...


  3. Dreamer

    Dreamer Lana Del Rey ♥ Capper V . I . P. Uploader

    Joined:
    Dec 4, 2014
    Messages:
    2,598
    Likes Received:
    2,916
    Thank you
     
  4. 777josem

    777josem Well-Known Member V . I . P. Uploader

    Joined:
    Sep 1, 2014
    Messages:
    3,169
    Likes Received:
    1,758
    :happy:Thank you so much!
     
  5. majid6888

    majid6888 Member

    Joined:
    Dec 15, 2013
    Messages:
    88
    Likes Received:
    1
    Thanks! :)
     
  6. znake

    znake Active Member

    Joined:
    Oct 25, 2013
    Messages:
    504
    Likes Received:
    70
    :love::girl: finally in HD
     
  7. DETOX

    DETOX Well-Known Member V . I . P. Uploader

    Joined:
    Feb 20, 2014
    Messages:
    2,888
    Likes Received:
    18,550
    I love MTV IDOL logo and I Kissed A Girl:love::love::love::happy:
    Thank you so much, Djodjara!
     
  8. lucash

    lucash Member

    Joined:
    Nov 25, 2013
    Messages:
    211
    Likes Received:
    14
    thank you
     
  9. rhea

    rhea Well-Known Member

    Joined:
    Jan 6, 2014
    Messages:
    5,886
    Likes Received:
    447
    thank you so much!
     
  10. lukierrywhere

    lukierrywhere Member

    Joined:
    May 1, 2015
    Messages:
    161
    Likes Received:
    1
    thank you
     
  11. Crusha

    Crusha Well-Known Member Capper

    Joined:
    Oct 15, 2014
    Messages:
    2,350
    Likes Received:
    2,293
    thank you very much :)
     
  12. PerryMe

    PerryMe Member

    Joined:
    Aug 29, 2015
    Messages:
    321
    Likes Received:
    3
    thank you
     
  13. sebasswift

    sebasswift Member

    Joined:
    Oct 26, 2015
    Messages:
    117
    Likes Received:
    4
    KATY PRISMATIC
     
  14. Snorom6

    Snorom6 Well-Known Member Uploader

    Joined:
    Dec 17, 2015
    Messages:
    4,244
    Likes Received:
    4,359
  15. Zeeh

    Zeeh Member

    Joined:
    Mar 20, 2015
    Messages:
    516
    Likes Received:
    10
    Like!
     
  16. yonita

    yonita Active Member

    Joined:
    Mar 7, 2016
    Messages:
    399
    Likes Received:
    38
    gracias gracias
     
  17. slill

    slill Member

    Joined:
    Jul 25, 2014
    Messages:
    966
    Likes Received:
    13
    thanks
     
  18. Clannadan

    Clannadan Active Member

    Joined:
    Jun 17, 2016
    Messages:
    143
    Likes Received:
    27
    Thanks!!!!
     
  19. revilo18

    revilo18 Well-Known Member

    Joined:
    May 26, 2016
    Messages:
    1,513
    Likes Received:
    67
    th
    ankkk
     
  20. braciata

    braciata Well-Known Member

    Joined:
    Oct 16, 2014
    Messages:
    377
    Likes Received:
    487
    thx a lo
    t
     
  21. danicoteca

    danicoteca Member

    Joined:
    Sep 10, 2016
    Messages:
    160
    Likes Received:
    17