Katy Perry - I Kissed A Girl (LPCM-Master-480p-H264)

Discussion in 'SD Live Performances' started by maximunrobot, Jul 19, 2014.

  1. maximunrobot

    maximunrobot Active Member

    Joined:
    Apr 16, 2014
    Messages:
    60
    Likes Received:
    204
    [​IMG]

    General
    Complete name : Katy Perry - I Kissed A Girl (LPCM-Master-480p-H264).mov
    Format : MPEG-4
    Format profile : QuickTime
    Codec ID : qt
    File size : 666 MiB
    Duration : 3mn 4s
    Overall bit rate : 30.3 Mbps
    Encoded date : UTC 2008-06-20 19:43:20
    Tagged date : UTC 2008-06-20 19:50:07
    Writing library : Apple QuickTime

    Video
    ID : 1
    Format : DV
    Codec ID : dvc
    Duration : 3mn 4s
    Bit rate mode : Constant
    Bit rate : 24.4 Mbps
    Encoded bit rate : 28.8 Mbps
    Width : 704 pixels
    Original width : 720 pixels
    Height : 480 pixels
    Display aspect ratio : 4:3
    Frame rate mode : Constant
    Frame rate : 29.970 fps
    Standard : NTSC
    Color space : YUV
    Chroma subsampling : 4:1:1
    Bit depth : 8 bits
    Scan type : Interlaced
    Scan order : Bottom Field First
    Compression mode : Lossy
    Bits/(Pixel*Frame) : 2.411
    Time code of first frame : 00:00:00;00
    Time code source : Subcode time code
    Stream size : 537 MiB (81%)
    Encoded stream size : 633 MiB (95%)
    Language : English
    Encoded date : UTC 2008-06-20 19:43:20
    Tagged date : UTC 2008-06-20 19:50:07
    Color primaries : BT.601 NTSC
    Transfer characteristics : BT.709
    Matrix coefficients : BT.601

    Audio
    ID : 2
    Format : PCM
    Format settings, Endianness : Big
    Format settings, Sign : Signed
    Codec ID : twos
    Duration : 3mn 4s
    Bit rate mode : Constant
    Bit rate : 1 536 Kbps
    Channel(s) : 2 channels
    Channel positions : Front: L R
    Sampling rate : 48.0 KHz
    Bit depth : 16 bits
    Stream size : 33.8 MiB (5%)
    Language : English
    Encoded date : UTC 2008-06-20 19:43:21
    Tagged date : UTC 2008-06-20 19:50:07

    Other
    ID : 3
    Type : Time code
    Format : QuickTime TC
    Duration : 3mn 4s
    Time code of first frame : 00:58:50:00
    Time code settings : Striped
    Language : English
    Encoded date : UTC 2008-06-20 19:50:07
    Tagged date : UTC 2008-06-20 19:50:07​

    Hidden Content:
    You must either reply or click 'Like' to see the hidden information contained here.
     
  2. Loading...


  3. danixat

    danixat Katycat ^-^ Capper V . I . P. Donor

    Joined:
    Feb 23, 2014
    Messages:
    1,207
    Likes Received:
    8,360
    Thanks! :victory:
     
  4. MerlinM

    MerlinM Well-Known Member

    Joined:
    Apr 20, 2014
    Messages:
    447
    Likes Received:
    423
    Danke schön!
     
  5. edgar

    edgar Well-Known Member

    Joined:
    Oct 12, 2013
    Messages:
    2,241
    Likes Received:
    2,263
  6. majid6888

    majid6888 Member

    Joined:
    Dec 15, 2013
    Messages:
    95
    Likes Received:
    1
     
  7. mikedreams

    mikedreams Well-Known Member Donor

    Joined:
    Nov 20, 2013
    Messages:
    457
    Likes Received:
    2,257
    Next time, could you have even more parts, found on more pages unavailable for downloadiing, and with even more repeating, exploding pop-ups?

    Though I will never see it at this rate, at least it was lossless and in proper SD. Thanks for that at least.
     
  8. miguelmr87

    miguelmr87 Well-Known Member

    Joined:
    Dec 20, 2013
    Messages:
    2,101
    Likes Received:
    430
    thank u , more from master
     
  9. multimediafm

    multimediafm Well-Known Member Donor

    Joined:
    Mar 27, 2014
    Messages:
    14,440
    Likes Received:
    1,156
  10. ePhysician

    ePhysician Active Member

    Joined:
    Jan 12, 2014
    Messages:
    455
    Likes Received:
    143
    Thanks
     
  11. adam dark

    adam dark Video Music Lover <3 V . I . P.

    Joined:
    Dec 5, 2013
    Messages:
    2,720
    Likes Received:
    6,093
  12. ytyh

    ytyh Member

    Joined:
    Mar 30, 2014
    Messages:
    432
    Likes Received:
    4
    thanks:super:
     
  13. DETOX

    DETOX Well-Known Member V . I . P. Uploader

    Joined:
    Feb 20, 2014
    Messages:
    5,930
    Likes Received:
    60,688
    Thank you!
     
  14. Antony

    Antony Well-Known Member

    Joined:
    Nov 11, 2013
    Messages:
    1,381
    Likes Received:
    254
    thanks :)
     
  15. MaggieS

    MaggieS Well-Known Member

    Joined:
    Sep 19, 2014
    Messages:
    1,196
    Likes Received:
    70
     
  16. mov

    mov Well-Known Member

    Joined:
    Aug 29, 2014
    Messages:
    394
    Likes Received:
    708
    thanks
     
  17. J_Pablo

    J_Pablo Active Member

    Joined:
    Nov 27, 2013
    Messages:
    694
    Likes Received:
    232
    Thanks!
     
  18. znake

    znake Active Member

    Joined:
    Oct 25, 2013
    Messages:
    503
    Likes Received:
    76
    Hi
    Thank you cuttie
     
  19. KallumLavigne

    KallumLavigne Well-Known Member

    Joined:
    Nov 18, 2013
    Messages:
    680
    Likes Received:
    1,471
    thanks
     
  20. KallumLavigne

    KallumLavigne Well-Known Member

    Joined:
    Nov 18, 2013
    Messages:
    680
    Likes Received:
    1,471
    the links are dead
     
  21. Dfrazzer

    Dfrazzer Super Moderator Staff Member Super Moderator Capper V . I . P. Donor

    Joined:
    Nov 4, 2013
    Messages:
    5,754
    Likes Received:
    14,132
    Here's the video re-uploaded:

    [​IMG] [​IMG] [​IMG] [​IMG] [​IMG] [​IMG]

    Hidden Content:
    You must either reply or click 'Like' to see the hidden information contained here.