WEB-RiP Katy Perry - Hit Network World Famous Rooftop Presents - Sydney 30 June 2017 - 720p

Discussion in 'HD Live Performances' started by hanshermann, Sep 5, 2017.

  1. hanshermann

    hanshermann Well-Known Member Uploader

    Joined:
    Aug 24, 2016
    Messages:
    6,464
    Likes Received:
    9,970
    [​IMG]

    Katy Perry - Hit Network World Famous Rooftop Presents - Sydney 30 June 2017 - 720p

    Code:
    General
    Complete name               : Watch Katy Perry's Incredible Australian Performance.mp4
    Format                      : MPEG-4
    Format profile              : Base Media
    Codec ID                    : isom (isom/iso2/avc1/mp41)
    File size                   : 175 MiB
    Duration                    : 11 min 26 s
    Overall bit rate mode       : Variable
    Overall bit rate            : 2 139 kb/s
    
    Video
    ID                          : 1
    Format                      : AVC
    Format/Info                 : Advanced Video Codec
    Format profile              : Main@L3.1
    Format settings, CABAC      : Yes
    Format settings, ReFrames   : 4 frames
    Codec ID                    : avc1
    Codec ID/Info               : Advanced Video Coding
    Duration                    : 11 min 25 s
    Source duration             : 11 min 26 s
    Bit rate                    : 2 000 kb/s
    Width                       : 1 280 pixels
    Height                      : 720 pixels
    Display aspect ratio        : 16:9
    Frame rate mode             : Variable
    Frame rate                  : 25.000 FPS
    Minimum frame rate          : 8.333 FPS
    Maximum frame rate          : 75.000 FPS
    Color space                 : YUV
    Chroma subsampling          : 4:2:0
    Bit depth                   : 8 bits
    Scan type                   : Progressive
    Bits/(Pixel*Frame)          : 0.087
    Stream size                 : 164 MiB (93%)
    Source stream size          : 164 MiB (93%)
    Writing library             : Zencoder Video Encoding System
    Color range                 : Limited
    Color primaries             : BT.709
    Transfer characteristics    : BT.709
    Matrix coefficients         : BT.709
    mdhd_Duration               : 685960
    
    Audio
    ID                          : 2
    Format                      : AAC
    Format/Info                 : Advanced Audio Codec
    Format profile              : LC
    Codec ID                    : 40
    Duration                    : 11 min 26 s
    Bit rate mode               : Variable
    Bit rate                    : 127 kb/s
    Maximum bit rate            : 215 kb/s
    Channel(s)                  : 2 channels
    Channel positions           : Front: L R
    Sampling rate               : 48.0 kHz
    Frame rate                  : 46.875 FPS (1024 spf)
    Compression mode            : Lossy
    Stream size                 : 10.4 MiB (6%)
    
    Hidden Content:
    You must either reply or click 'Like' to see the hidden information contained here.
    Request: http://sharemania.us/threads/katy-perry-live-from-hit-network.55835/
     
    Last edited: Apr 14, 2018
  2. Loading...


  3. aturner18

    aturner18 Well-Known Member

    Joined:
    Oct 2, 2014
    Messages:
    1,546
    Likes Received:
    145
    thanks
     
  4. bruno1901

    bruno1901 Active Member

    Joined:
    Dec 9, 2015
    Messages:
    727
    Likes Received:
    96
    :love:Thank you very much :love::D
     
  5. P1956

    P1956 Active Member

    Joined:
    Aug 18, 2014
    Messages:
    505
    Likes Received:
    57
    thanks
     
  6. detroit1

    detroit1 Well-Known Member

    Joined:
    Jan 6, 2014
    Messages:
    3,043
    Likes Received:
    413
    thank you
     
  7. Danny82

    Danny82 Well-Known Member

    Joined:
    May 28, 2016
    Messages:
    2,358
    Likes Received:
    654
    Great!!! Thank you so much!!!
     
  8. 3veronicas

    3veronicas Well-Known Member

    Joined:
    Aug 26, 2016
    Messages:
    1,689
    Likes Received:
    93
    Thanks!
     
  9. ermos

    ermos New Member

    Joined:
    Aug 24, 2017
    Messages:
    21
    Likes Received:
    0
    thanks
     
  10. Adriano Everton

    Adriano Everton Well-Known Member

    Joined:
    Aug 25, 2014
    Messages:
    1,679
    Likes Received:
    180
  11. keven

    keven Member

    Joined:
    Apr 1, 2015
    Messages:
    396
    Likes Received:
    14
    gracias amigo
     
  12. exterminador

    exterminador Well-Known Member

    Joined:
    Jul 3, 2016
    Messages:
    2,306
    Likes Received:
    201
  13. JaiMC

    JaiMC Member

    Joined:
    May 16, 2014
    Messages:
    45
    Likes Received:
    8
    Thank you!
     
  14. digimaze

    digimaze Well-Known Member

    Joined:
    Feb 11, 2015
    Messages:
    1,593
    Likes Received:
    110
    thanks
     
  15. tf135

    tf135 Well-Known Member

    Joined:
    Nov 14, 2014
    Messages:
    3,135
    Likes Received:
    183
    thanks
     
  16. JessieV

    JessieV Member

    Joined:
    Sep 6, 2017
    Messages:
    44
    Likes Received:
    2
    thanks
     
  17. falk

    falk Member

    Joined:
    Apr 9, 2014
    Messages:
    209
    Likes Received:
    24
    Many thanks
     
  18. sideshow_bob

    sideshow_bob Well-Known Member

    Joined:
    Dec 20, 2013
    Messages:
    3,206
    Likes Received:
    229
  19. Pavulon

    Pavulon Well-Known Member Donor

    Joined:
    Mar 22, 2016
    Messages:
    4,476
    Likes Received:
    920
    thanks
     
  20. brit87

    brit87 Member

    Joined:
    Jun 21, 2017
    Messages:
    53
    Likes Received:
    1
    Thanks
     
  21. alterion

    alterion Active Member

    Joined:
    May 7, 2016
    Messages:
    644
    Likes Received:
    25