FEED Katy Perry - Fireworks - 2010 American Music Awards 720p HDTV 36 Mbps

Discussion in 'HD Live Performances' started by edgar, Nov 11, 2015.

  1. Timsi

    Timsi Active Member

    Joined:
    Jun 17, 2016
    Messages:
    638
    Likes Received:
    45
    thanks
     
  2. mujjme

    mujjme Active Member

    Joined:
    Aug 22, 2017
    Messages:
    937
    Likes Received:
    32
    !!!!!!!!!
     
  3. GABSEDP

    GABSEDP @gabsedp

    Joined:
    Apr 16, 2014
    Messages:
    1,235
    Likes Received:
    203
    thanks a lot
     
  4. bigquinn

    bigquinn Active Member

    Joined:
    Oct 25, 2018
    Messages:
    833
    Likes Received:
    33
  5. bigquinn

    bigquinn Active Member

    Joined:
    Oct 25, 2018
    Messages:
    833
    Likes Received:
    33
  6. ulygatore

    ulygatore Well-Known Member

    Joined:
    Jun 29, 2017
    Messages:
    2,791
    Likes Received:
    121
  7. Lafuente

    Lafuente Active Member

    Joined:
    Sep 23, 2018
    Messages:
    399
    Likes Received:
    30
  8. luismolinanyc

    luismolinanyc Well-Known Member

    Joined:
    May 17, 2016
    Messages:
    1,217
    Likes Received:
    41
  9. Lisa-20112011

    Lisa-20112011 Well-Known Member

    Joined:
    Jun 25, 2018
    Messages:
    1,389
    Likes Received:
    33
  10. asexycowboy

    asexycowboy Well-Known Member

    Joined:
    Apr 6, 2015
    Messages:
    1,109
    Likes Received:
    71
    Thank you.:love:
     
  11. Minotaur

    Minotaur Member

    Joined:
    Jun 9, 2019
    Messages:
    87
    Likes Received:
    1
  12. ken

    ken Member

    Joined:
    Sep 2, 2016
    Messages:
    75
    Likes Received:
    6
    thx fr sharing QUOTE="edgar, post: 202430, member: 36"][​IMG]

    [​IMG]

    [​IMG]

    Code:
    Complete name : Katy Perry - Fireworks - 2010 American Music Awards 720p HDTV 36 Mbps DD2.0 MPEG2-CtrlHD.ts
    Format : MPEG-TS
    File size : 1.04 GiB
    Duration: 4mn 5s
    Overall bit rate mode : Variable
    Overall bit rate  : 36.2 Mbps
    Maximum Overall bit rate : 35.5 Mbps
    
    Video
    ID  : 4113 (0x1011)
    Menu ID  : 1 (0x1)
    Format : MPEG Video
    Format version: Version 2
    Format profile              : Main@High
    Format settings, BVOP       : Yes
    Format settings, Matrix     : Custom
    Format settings, GOP        : M=3, N=12
    Codec ID                    : 2
    Duration                    : 4mn 5s
    Bit rate mode               : Variable
    Bit rate                    : 34.0 Mbps
    Maximum bit rate            : 34.9 Mbps
    Width                       : 1 280 pixels
    Height                      : 720 pixels
    Display aspect ratio        : 16:9
    Frame rate                  : 59.940 fps
    Standard                    : Component
    Color space                 : YUV
    Chroma subsampling          : 4:2:0
    Bit depth                   : 8 bits
    Scan type                   : Progressive
    Compression mode            : Lossy
    Bits/(Pixel*Frame)          : 0.616
    Time code of first frame    : 00:41:22;05
    Time code source            : Group of pictures header
    GOP, Open/Closed            : Open
    Stream size                 : 997 MiB (94%)
    
    Audio
    ID                          : 4352 (0x1100)
    Menu ID                     : 1 (0x1)
    Format                      : MPEG Audio
    Format version              : Version 1
    Format profile              : Layer 2
    Codec ID                    : 4
    Duration                    : 4mn 5s
    Bit rate mode               : Constant
    Bit rate                    : 384 Kbps
    Channel(s)                  : 2 channels
    Sampling rate               : 48.0 KHz
    Compression mode            : Lossy
    Delay relative to video     : -48ms
    Stream size                 : 11.3 MiB (1%)
    Language                    : English
    ***Hidden content cannot be quoted.***[/QUOTE]
     
  13. BadassYonce

    BadassYonce Member

    Joined:
    Sep 27, 2018
    Messages:
    597
    Likes Received:
    18
  14. jeaneyne

    jeaneyne Well-Known Member

    Joined:
    Oct 21, 2013
    Messages:
    1,671
    Likes Received:
    591
  15. 3veronicas

    3veronicas Well-Known Member

    Joined:
    Aug 26, 2016
    Messages:
    2,836
    Likes Received:
    172