HDTV Katy Perry - Firework (The Ellen DeGeneres Show 2010) Videoman-HDTV-1080i

Discussion in 'HD Live Performances' started by danixat, Mar 23, 2020.

  1. danixat

    danixat Katycat ^-^ Capper V . I . P. Uploader Archiver Donor

    Joined:
    Feb 23, 2014
    Messages:
    1,303
    Likes Received:
    10,199
    [​IMG]
    Code:
    General
    Complete name                  : F:\[HDTV-1080i].Katy Perry - Firework - 12.08.10 (The Ellen DeGeneres Show) - VideoMan.mpg
    Format                         : MPEG-PS
    File size                      : 434 MiB
    Duration                       : 4 min 34 s
    Overall bit rate mode          : Variable
    Overall bit rate               : 13.3 Mb/s
    Movie name                     : Ellen DeGeneres Show, The
    Law rating                     : TV-G
    
    Video
    ID                             : 224 (0xE0)
    Format                         : MPEG Video
    Format version                 : Version 2
    Format profile                 : Main@High
    Format settings, BVOP          : Yes
    Format settings, Matrix        : Custom
    Format settings, GOP           : Variable
    Format settings, picture struc : Frame
    Duration                       : 4 min 34 s
    Bit rate mode                  : Variable
    Bit rate                       : 12.6 Mb/s
    Maximum bit rate               : 65.0 Mb/s
    Width                          : 1 920 pixels
    Height                         : 1 080 pixels
    Display aspect ratio           : 16:9
    Active Format Description      : Full frame 16:9 image
    Frame rate                     : 29.970 (30000/1001) FPS
    Color space                    : YUV
    Chroma subsampling             : 4:2:0
    Bit depth                      : 8 bits
    Scan type                      : Interlaced
    Scan order                     : Top Field First
    Compression mode               : Lossy
    Bits/(Pixel*Frame)             : 0.203
    Time code of first frame       : 00:00:00;00
    Time code source               : Group of pictures header
    Stream size                    : 413 MiB (95%)
    
    Audio
    ID                             : 189 (0xBD)-128 (0x80)
    Format                         : AC-3
    Format/Info                    : Audio Coding 3
    Format settings, Endianness    : Big
    Muxing mode                    : DVD-Video
    Duration                       : 4 min 34 s
    Bit rate mode                  : Constant
    Bit rate                       : 384 kb/s
    Channel(s)                     : 6 channels
    Channel positions              : Front: L C R, Side: L R, LFE
    Sampling rate                  : 48.0 kHz
    Frame rate                     : 31.250 FPS (1536 SPF)
    Bit depth                      : 16 bits
    Compression mode               : Lossy
    Stream size                    : 12.6 MiB (3%)
    Service kind                   : Complete Main
    
    Text #1
    ID                             : 224 (0xE0)-CC1
    Format                         : EIA-608
    Muxing mode                    : A/53 / DTVCC Transport
    Muxing mode, more info         : Muxed in Video #1
    Duration                       : 4 min 34 s
    Bit rate mode                  : Constant
    Stream size                    : 0.00 Byte (0%)
    CaptionServiceName             : CC1
    
    Text #2
    ID                             : 224 (0xE0)-T1
    Format                         : EIA-608
    Muxing mode                    : A/53 / DTVCC Transport
    Muxing mode, more info         : Muxed in Video #1
    Duration                       : 4 min 34 s
    Bit rate mode                  : Constant
    Stream size                    : 0.00 Byte (0%)
    CaptionServiceName             : T1
    
    Text #3
    ID                             : 224 (0xE0)-1
    Format                         : EIA-708
    Muxing mode                    : A/53 / DTVCC Transport
    Muxing mode, more info         : Muxed in Video #1
    Duration                       : 4 min 34 s
    Bit rate mode                  : Constant
    Stream size                    : 0.00 Byte (0%)
    Download:
    Hidden Content:
    You must either reply or click 'Like' to see the hidden information contained here.
     
  2. Loading...


  3. MichelleBright

    MichelleBright Well-Known Member

    Joined:
    Jul 20, 2019
    Messages:
    1,220
    Likes Received:
    195
    Appreciate :victory:
     
  4. neb010203

    neb010203 Well-Known Member

    Joined:
    Sep 6, 2018
    Messages:
    1,826
    Likes Received:
    73
  5. Jenkins

    Jenkins Well-Known Member

    Joined:
    May 30, 2019
    Messages:
    24,612
    Likes Received:
    640
    THANKS
     
  6. Andreyy kaaa

    Andreyy kaaa Member

    Joined:
    Feb 5, 2020
    Messages:
    562
    Likes Received:
    10
  7. tetard

    tetard Well-Known Member V . I . P.

    Joined:
    Mar 29, 2014
    Messages:
    4,624
    Likes Received:
    6,226
    Thanks
     
  8. ulygatore

    ulygatore Well-Known Member

    Joined:
    Jun 29, 2017
    Messages:
    2,975
    Likes Received:
    145
  9. multimediafm

    multimediafm Well-Known Member Archiver Donor

    Joined:
    Mar 27, 2014
    Messages:
    17,273
    Likes Received:
    1,595
  10. ABCDE123

    ABCDE123 Active Member

    Joined:
    Apr 11, 2020
    Messages:
    254
    Likes Received:
    28
    thanks
     
  11. maxkeiser

    maxkeiser Well-Known Member Uploader

    Joined:
    Aug 24, 2016
    Messages:
    8,096
    Likes Received:
    23,005
    wahts taht