Katy Perry - Firework Disney Channel 1080i HDMania

Discussion in 'DISNEY HD' started by Dfrazzer, Oct 14, 2015.

  1. Dfrazzer

    Dfrazzer Super Moderator Staff Member Super Moderator Capper V . I . P. Donor

    Joined:
    Nov 4, 2013
    Messages:
    4,643
    Likes Received:
    9,964
    [​IMG] [​IMG] [​IMG] [​IMG] [​IMG] [​IMG] [​IMG] [​IMG] [​IMG] [​IMG] [​IMG] [​IMG] [​IMG] [​IMG]

    Code:
    General
    ID : 1 (0x1)
    Complete name : C:\Users\Dfrazzer\Desktop\Katy Perry - Firework Disney Channel 1080i HDMania.ts
    Format : MPEG-TS
    File size : 375 MiB
    Duration : 3mn 53s
    Overall bit rate mode : Variable
    Overall bit rate : 13.5 Mbps
    
    Video
    ID : 100 (0x64)
    Menu ID : 2 (0x2)
    Format : AVC
    Format/Info : Advanced Video Codec
    Format profile : High@L4.0
    Format settings, CABAC : Yes
    Format settings, ReFrames : 2 frames
    Codec ID : 27
    Duration : 3mn 52s
    Bit rate mode : Variable
    Bit rate : 12.6 Mbps
    Maximum bit rate : 24.0 Mbps
    Width : 1 920 pixels
    Height : 1 080 pixels
    Display aspect ratio : 16:9
    Frame rate : 25.000 fps
    Color space : YUV
    Chroma subsampling : 4:2:0
    Bit depth : 8 bits
    Scan type : Interlaced
    Scan order : Top Field First
    Bits/(Pixel*Frame) : 0.244
    Stream size : 351 MiB (93%)
    Color primaries : BT.709
    Transfer characteristics : BT.709
    Matrix coefficients : BT.709
    
    Audio
    ID : 101 (0x65)
    Menu ID : 2 (0x2)
    Format : AAC
    Format/Info : Advanced Audio Codec
    Format version : Version 4
    Format profile : LC
    Muxing mode : ADTS
    Codec ID : 15
    Duration : 3mn 52s
    Bit rate mode : Variable
    Bit rate : 220 Kbps
    Channel(s) : 2 channels
    Channel positions : Front: L R
    Sampling rate : 48.0 KHz
    Compression mode : Lossy
    Stream size : 6.10 MiB (2%)
    
    Hidden Content:
    You must reply before you can see the hidden data contained here.
    Capped by me.
     
  2. Loading...


  3. DETOX

    DETOX K-POP fan ♡ VIXX V . I . P. Uploader

    Joined:
    Feb 20, 2014
    Messages:
    3,337
    Likes Received:
    23,716
    Thank you so much!
     
  4. Crusha

    Crusha Well-Known Member Capper V . I . P.

    Joined:
    Oct 15, 2014
    Messages:
    2,355
    Likes Received:
    2,523
    thank you
     
  5. rhea

    rhea Well-Known Member

    Joined:
    Jan 6, 2014
    Messages:
    6,616
    Likes Received:
    679
    thank you so much :)
     
  6. thankstome

    thankstome Well-Known Member

    Joined:
    Feb 6, 2014
    Messages:
    832
    Likes Received:
    1,155
    Thnk you
     
  7. yukides

    yukides Active Member

    Joined:
    Nov 15, 2013
    Messages:
    178
    Likes Received:
    97
    thank you :D
     
  8. Zeeh

    Zeeh Member

    Joined:
    Mar 20, 2015
    Messages:
    645
    Likes Received:
    16
    Thanks
     
  9. BinhTVT

    BinhTVT Member

    Joined:
    Jun 30, 2015
    Messages:
    182
    Likes Received:
    3
    thanks so much
     
  10. Rayemond

    Rayemond Active Member

    Joined:
    Dec 11, 2016
    Messages:
    243
    Likes Received:
    33
    THANKS
     
  11. daniloo augusto

    daniloo augusto Member

    Joined:
    Jan 17, 2017
    Messages:
    130
    Likes Received:
    3
  12. PositiveRush97

    PositiveRush97 Member

    Joined:
    Jan 19, 2017
    Messages:
    108
    Likes Received:
    6
  13. DiVenturas

    DiVenturas Well-Known Member

    Joined:
    Oct 21, 2015
    Messages:
    2,704
    Likes Received:
    120
  14. hanshermann

    hanshermann Well-Known Member Uploader

    Joined:
    Aug 24, 2016
    Messages:
    4,658
    Likes Received:
    2,319
    wahts taht
     
  15. sabla

    sabla Member

    Joined:
    Apr 7, 2016
    Messages:
    43
    Likes Received:
    1
    Thanks.
     
  16. curg

    curg Active Member

    Joined:
    Dec 6, 2013
    Messages:
    873
    Likes Received:
    33
    thank you
     
  17. thepasco

    thepasco Member

    Joined:
    May 26, 2017
    Messages:
    79
    Likes Received:
    2
    ,,,,,mmmm
     
  18. zhxliveing

    zhxliveing Active Member

    Joined:
    Sep 7, 2016
    Messages:
    490
    Likes Received:
    25
    t
    thanks