Katy Perry - E.T (TELEHIT.HD.1080i.DD2.0).-Crusha

Discussion in 'TELEHIT HD' started by Crusha, Feb 16, 2016.

  1. Crusha

    Crusha Well-Known Member Capper V . I . P.

    Joined:
    Oct 15, 2014
    Messages:
    2,355
    Likes Received:
    2,522
    [​IMG]

    Mediainfo
    General
    ID : 1 (0x1)
    Complete name : Katy Perry - E.T (TELEHIT.HD.1080i.DD2.0).-Crusha.ts
    Format : MPEG-TS
    File size : 109 MiB
    Duration : 4mn 56s
    Overall bit rate mode : Variable
    Overall bit rate : 3 071 Kbps

    Video
    ID : 2238 (0x8BE)
    Menu ID : 857 (0x359)
    Format : AVC
    Format/Info : Advanced Video Codec
    Format profile : [email protected]
    Format settings, CABAC : Yes
    Format settings, ReFrames : 4 frames
    Format settings, GOP : M=8, N=32
    Codec ID : 27
    Duration : 4mn 56s
    Bit rate : 2 725 Kbps
    Width : 1 920 pixels
    Height : 1 080 pixels
    Display aspect ratio : 16:9
    Frame rate : 29.970 fps
    Standard : Component
    Color space : YUV
    Chroma subsampling : 4:2:0
    Bit depth : 8 bits
    Scan type : MBAFF
    Scan order : Top Field First
    Bits/(Pixel*Frame) : 0.044
    Stream size : 96.4 MiB (89%)
    Color range : Limited
    Color primaries : BT.709
    Transfer characteristics : BT.709
    Matrix coefficients : BT.709

    Audio
    ID : 3849 (0xF09)
    Menu ID : 857 (0x359)
    Format : AC-3
    Format/Info : Audio Coding 3
    Mode extension : CM (complete main)
    Format settings, Endianness : Big
    Codec ID : 6
    Duration : 4mn 56s
    Bit rate mode : Constant
    Bit rate : 192 Kbps
    Channel(s) : 2 channels
    Channel positions : Front: L R
    Sampling rate : 48.0 KHz
    Bit depth : 16 bits
    Compression mode : Lossy
    Delay relative to video : -66ms
    Stream size : 6.79 MiB (6%)
    Language : English
    Hidden Content:
    You must reply before you can see the hidden data contained here.
    Password:
    crusha
     
  2. Loading...


  3. abdi

    abdi Hi, if you need something feel free to PM me :) V . I . P. Uploader

    Joined:
    Sep 23, 2014
    Messages:
    2,357
    Likes Received:
    9,799
    thank you
     
  4. danixat

    danixat Katycat ^-^ Capper V . I . P. Donor

    Joined:
    Feb 23, 2014
    Messages:
    1,198
    Likes Received:
    7,136
    Thanks! :victory:
     
  5. Zatimi

    Zatimi Active Member

    Joined:
    Aug 27, 2014
    Messages:
    719
    Likes Received:
    131
    thanks a lot
     
  6. sideshow_bob

    sideshow_bob Well-Known Member

    Joined:
    Dec 20, 2013
    Messages:
    2,899
    Likes Received:
    173
  7. danicoteca

    danicoteca Member

    Joined:
    Sep 10, 2016
    Messages:
    161
    Likes Received:
    17
  8. seregil

    seregil Member

    Joined:
    Sep 5, 2014
    Messages:
    103
    Likes Received:
    1
    thanks
     
  9. DiVenturas

    DiVenturas Well-Known Member

    Joined:
    Oct 21, 2015
    Messages:
    2,535
    Likes Received:
    104
  10. hanshermann

    hanshermann Well-Known Member Uploader

    Joined:
    Aug 24, 2016
    Messages:
    4,655
    Likes Received:
    2,308
    wahts taht
     
  11. NiceBoy

    NiceBoy Member

    Joined:
    May 20, 2016
    Messages:
    232
    Likes Received:
    5
    Many Thanks