Katy Perry - E.T. (California Dreams Tour Backdrop) 1080p

Discussion in 'YOUTUBE' started by danixat, Apr 11, 2016.

  1. danixat

    danixat Katycat ^-^ Capper V . I . P. Donor

    Joined:
    Feb 23, 2014
    Messages:
    1,145
    Likes Received:
    6,184
    [​IMG]
    Code:
    General
    Complete name                  : K:\Katy Perry - E.T. (California Dreams Tour Backdrop) 1080p.mp4
    Format                         : MPEG-4
    Format profile                 : Base Media
    Codec ID                       : isom
    File size                      : 128 MiB
    Duration                       : 3mn 26s
    Overall bit rate mode          : Variable
    Overall bit rate               : 5 225 Kbps
    Writing application            : Lavf52.94.0
    
    Video
    ID                             : 1
    Format                         : AVC
    Format/Info                    : Advanced Video Codec
    Format profile                 : [email protected]
    Format settings, CABAC         : Yes
    Format settings, ReFrames      : 2 frames
    Codec ID                       : avc1
    Codec ID/Info                  : Advanced Video Coding
    Duration                       : 3mn 26s
    Bit rate                       : 4 923 Kbps
    Width                          : 1 920 pixels
    Height                         : 1 080 pixels
    Display aspect ratio           : 16:9
    Frame rate mode                : Constant
    Frame rate                     : 29.970 fps
    Color space                    : YUV
    Chroma subsampling             : 4:2:0
    Bit depth                      : 8 bits
    Scan type                      : Progressive
    Bits/(Pixel*Frame)             : 0.079
    Stream size                    : 124 MiB (97%)
    Writing library                : x264 core 112 r1834 a51816a
    
    Audio
    ID                             : 2
    Format                         : AAC
    Format/Info                    : Advanced Audio Codec
    Format profile                 : LC
    Codec ID                       : 40
    Duration                       : 3mn 25s
    Bit rate mode                  : Variable
    Bit rate                       : 165 Kbps
    Channel(s)                     : 2 channels
    Channel positions              : Front: L R
    Sampling rate                  : 48.0 KHz
    Compression mode               : Lossy
    Stream size                    : 4.06 MiB (3%)
    Download:
    Hidden Content:
    You must either reply or click 'Like' to see the hidden information contained here.
     
    Derel, jeverotic, mohbar and 4 others like this.
  2. Loading...


  3. nachostripped

    nachostripped Member

    Joined:
    Feb 5, 2015
    Messages:
    321
    Likes Received:
    5
  4. keven

    keven Member

    Joined:
    Apr 1, 2015
    Messages:
    140
    Likes Received:
    3
    more backdrops?
     
  5. femmemonsters

    femmemonsters Member

    Joined:
    Oct 8, 2015
    Messages:
    458
    Likes Received:
    15
  6. luisjose24

    luisjose24 Active Member

    Joined:
    Aug 24, 2016
    Messages:
    253
    Likes Received:
    104
    thanks!