HDTV Katy Perry - BBC Radio 1's Big Weekend (2014) (DTS) (5.1) (1080i) (HDTV)

Discussion in 'HD Live Performances' started by hanshermann, Jul 11, 2018 at 4:58 AM.

  1. hanshermann

    hanshermann Well-Known Member Uploader

    Joined:
    Aug 24, 2016
    Messages:
    6,456
    Likes Received:
    9,876
    [​IMG]

    Katy Perry - BBC Radio 1's Big Weekend (2014) (DTS) (5.1) (1080i) (HDTV)

    Code:
    General
    Unique ID                   : 228702500006598773215496206908341734181 (0xAC0E7FD2E77B3067BA7DBA9D2EE9CB25)
    Complete name               : Katy Perry; BBC Radio 1's Big Weekend (2014) (DTS) (5.1) (1080i) (HDTV).mkv
    Format                      : Matroska
    Format version              : Version 4 / Version 2
    File size                   : 2.71 GiB
    Duration                    : 1 h 0 min
    Overall bit rate            : 6 454 kb/s
    Movie name                  : Katy Perry: BBC Radio 1's Big Weekend (2014) (DTS) (5.1) (1080i) (HDTV)
    Encoded date                : UTC 2016-10-09 15:02:42
    Writing application         : mkvmerge v7.3.0 ('Nouages') 64bit built on Oct 22 2014 18:53:34
    Writing library             : libebml v1.3.0 + libmatroska v1.4.1
    
    Video
    ID                          : 1
    Format                      : AVC
    Format/Info                 : Advanced Video Codec
    Format profile              : High@L4
    Format settings             : CABAC / 4 Ref Frames
    Format settings, CABAC      : Yes
    Format settings, ReFrames   : 4 frames
    Codec ID                    : V_MPEG4/ISO/AVC
    Duration                    : 1 h 0 min
    Bit rate                    : 5 504 kb/s
    Width                       : 1 920 pixels
    Height                      : 1 080 pixels
    Display aspect ratio        : 16:9
    Frame rate mode             : Variable
    Frame rate                  : 26.335 FPS
    Original frame rate         : 25.000 FPS
    Standard                    : Component
    Color space                 : YUV
    Chroma subsampling          : 4:2:0
    Bit depth                   : 8 bits
    Scan type                   : MBAFF
    Scan type, store method     : Interleaved fields
    Scan order                  : Top Field First
    Bits/(Pixel*Frame)          : 0.101
    Stream size                 : 2.31 GiB (85%)
    Title                       : Katy Perry: BBC Radio 1's Big Weekend (2014) (DTS) (5.1) (1080i) (HDTV)
    Language                    : English
    Default                     : Yes
    Forced                      : Yes
    Color range                 : Limited
    Color primaries             : BT.709
    Transfer characteristics    : BT.709
    Matrix coefficients         : BT.709
    
    Audio #1
    ID                          : 2
    Format                      : DTS
    Format/Info                 : Digital Theater Systems
    Codec ID                    : A_DTS
    Duration                    : 1 h 0 min
    Bit rate mode               : Constant
    Bit rate                    : 756 kb/s
    Channel(s)                  : 6 channels
    Channel positions           : Front: L C R, Side: L R, LFE
    Sampling rate               : 48.0 kHz
    Frame rate                  : 93.750 FPS (512 SPF)
    Bit depth                   : 16 bits
    Compression mode            : Lossy
    Stream size                 : 325 MiB (12%)
    Title                       : DTS 5.1
    Language                    : English
    Default                     : Yes
    Forced                      : Yes
    
    Audio #2
    ID                          : 3
    Format                      : AC-3
    Format/Info                 : Audio Coding 3
    Codec ID                    : A_AC3
    Duration                    : 1 h 0 min
    Bit rate mode               : Constant
    Bit rate                    : 192 kb/s
    Channel(s)                  : 2 channels
    Channel positions           : Front: L R
    Sampling rate               : 48.0 kHz
    Frame rate                  : 31.250 FPS (1536 SPF)
    Bit depth                   : 16 bits
    Compression mode            : Lossy
    Delay relative to video     : 13 ms
    Stream size                 : 82.6 MiB (3%)
    Title                       : DD5.1
    Language                    : English
    Service kind                : Complete Main
    Default                     : No
    Forced                      : Yes
    Hidden Content:
    You must either reply or click 'Like' to see the hidden information contained here.
     
    tf135, eks22, Paulo MDNA Tour and 4 others like this.
  2. Loading...


  3. detroit1

    detroit1 Well-Known Member

    Joined:
    Jan 6, 2014
    Messages:
    3,032
    Likes Received:
    411
  4. nickiminajthebest

    nickiminajthebest Nicki Minaj

    Joined:
    Aug 16, 2016
    Messages:
    192
    Likes Received:
    266
    Thanks
     
  5. benja

    benja Well-Known Member

    Joined:
    Jan 8, 2014
    Messages:
    1,500
    Likes Received:
    100
  6. Yehonatan643456

    Yehonatan643456 Member

    Joined:
    Apr 10, 2017
    Messages:
    370
    Likes Received:
    6
  7. femmemonsters

    femmemonsters Active Member

    Joined:
    Oct 8, 2015
    Messages:
    752
    Likes Received:
    39
  8. tf135

    tf135 Well-Known Member

    Joined:
    Nov 14, 2014
    Messages:
    3,133
    Likes Received:
    183
  9. Ponius

    Ponius Member

    Joined:
    Dec 19, 2016
    Messages:
    508
    Likes Received:
    24
    Danke
     
  10. Extazy4u2

    Extazy4u2 Well-Known Member

    Joined:
    Jan 26, 2017
    Messages:
    2,480
    Likes Received:
    262
  11. israelmmcc

    israelmmcc Member

    Joined:
    Sep 4, 2016
    Messages:
    198
    Likes Received:
    6
  12. Mupenzi Patrick

    Mupenzi Patrick Member

    Joined:
    Jun 22, 2018
    Messages:
    75
    Likes Received:
    4
  13. Kevin

    Kevin Member

    Joined:
    May 28, 2014
    Messages:
    117
    Likes Received:
    7
  14. mizdot

    mizdot Well-Known Member

    Joined:
    Nov 13, 2014
    Messages:
    2,679
    Likes Received:
    115