Kate Ryan - Desenchantee (MTVIdol-1080i-DD2.0)-Olgold

Discussion in 'MTV IDOL' started by Olgold, Aug 20, 2015.

  1. Olgold

    Olgold Well-Known Member Capper

    Joined:
    Aug 19, 2015
    Messages:
    386
    Likes Received:
    1,303
    [​IMG]
    General
    Format : MPEG-TS
    File size : 163 MiB
    Duration : 3mn 36s
    Overall bit rate mode : Variable
    Overall bit rate : 6 292 Kbps

    Video
    Format : AVC
    Format/Info : Advanced Video Codec
    Format profile : [email protected]
    Format settings, CABAC : Yes
    Format settings, ReFrames : 4 frames
    Duration : 3mn 36s
    Bit rate : 5 787 Kbps
    Width : 1 920 pixels
    Height : 1 080 pixels
    Display aspect ratio : 16:9
    Frame rate : 25.000 fps
    Standard : Component
    Color space : YUV
    Chroma subsampling : 4:2:0
    Bit depth : 8 bits
    Scan type : MBAFF
    Scan order : Top Field First
    Bits/(Pixel*Frame) : 0.112
    Stream size : 149 MiB (92%)
    Encryption : Seca Mediaguard 1/2
    Color range : Limited

    Audio
    Format : AC-3
    Format/Info : Audio Coding 3
    Mode extension : CM (complete main)
    Format settings, Endianness : Big
    Duration : 3mn 36s
    Bit rate mode : Constant
    Bit rate : 192 Kbps
    Channel(s) : 2 channels
    Channel positions : Front: L R
    Sampling rate : 48.0 KHz
    Compression mode : Lossy
    Delay relative to video : -7ms
    Stream size : 4.96 MiB (3%)
    Language : French
    Hidden Content:
    You must reply before you can see the hidden data contained here.
     
    rhea, 777josem and CELOBRAZiL like this.
  2. Dreamer

    Dreamer ♫ It's Britney Bitch ♫ Capper Uploader

    Joined:
    Dec 4, 2014
    Messages:
    2,135
    Likes Received:
    1,795
    Thank you
     
  3. rhea

    rhea Well-Known Member

    Joined:
    Jan 6, 2014
    Messages:
    5,193
    Likes Received:
    250
    thank you so much :)
     
  4. Crusha

    Crusha Well-Known Member Capper

    Joined:
    Oct 15, 2014
    Messages:
    2,349
    Likes Received:
    2,063
    thank you
     
  5. nolynexor88

    nolynexor88 Member

    Joined:
    Sep 29, 2015
    Messages:
    762
    Likes Received:
    23
     
  6. Snorom6

    Snorom6 Well-Known Member Uploader

    Joined:
    Dec 17, 2015
    Messages:
    4,246
    Likes Received:
    3,258
  7. TrendMusic

    TrendMusic Active Member

    Joined:
    Oct 7, 2013
    Messages:
    847
    Likes Received:
    40
  8. Pavulon

    Pavulon Member

    Joined:
    Mar 22, 2016
    Messages:
    925
    Likes Received:
    10
    thanks
     
  9. tapions

    tapions Active Member

    Joined:
    Aug 30, 2016
    Messages:
    746
    Likes Received:
    47
    gracias
     
  10. revilo18

    revilo18 Well-Known Member

    Joined:
    May 26, 2016
    Messages:
    1,256
    Likes Received:
    50
    THANKKK