Kate Bush - Wuthering Heights (2nd/US Version) RAGE HD [1978]

Discussion in 'ABC HD' started by lennyleonard, Aug 13, 2019.

  1. lennyleonard

    lennyleonard Member

    Joined:
    Sep 25, 2018
    Messages:
    60
    Likes Received:
    15
    [​IMG]

    [​IMG]

    [​IMG]
    Format : MPEG-PS
    File size : 324 MiB
    Duration : 4 min 26 s
    Overall bit rate mode : Variable
    Overall bit rate : 10.2 Mb/s

    Video
    ID : 224 (0xE0)
    Format : MPEG Video
    Commercial name : HDV 720p
    Format version : Version 2
    Format profile : Main@High
    Format settings, BVOP : Yes
    Format settings, Matrix : Custom
    Format settings, GOP : M=3, N=24
    Duration : 4 min 26 s
    Bit rate mode : Variable
    Bit rate : 9 600 kb/s
    Width : 1 280 pixels
    Height : 720 pixels
    Display aspect ratio : 16:9
    Frame rate : 50.000 FPS
    Standard : Component
    Color space : YUV
    Chroma subsampling : 4:2:0
    Bit depth : 8 bits
    Scan type : Progressive
    Compression mode : Lossy
    Bits/(Pixel*Frame) : 0.208
    Time code of first frame : 00:00:00:22
    Time code source : Group of pictures header
    GOP, Open/Closed : Open
    Stream size : 303 MiB (94%)

    Audio
    ID : 189 (0xBD)-128 (0x80)
    Format : AC-3
    Format/Info : Audio Coding 3
    Format settings, Endianness : Big
    Muxing mode : DVD-Video
    Duration : 4 min 26 s
    Bit rate mode : Constant
    Bit rate : 448 kb/s
    Channel(s) : 2 channels
    Channel positions : Front: L R
    Sampling rate : 48.0 kHz
    Frame rate : 31.250 FPS (1536 spf)
    Bit depth : 16 bits
    Compression mode : Lossy
    Stream size : 14.2 MiB (4%)
    Service kind : Complete Main

    I saw that someone had requested this file, and remembered that I'd got to put my hands in it a while ago, and decided to share. This is the best version of this video I've ever seen around - even way better than the one Kate's official YT channel has uploaded -, the only negative point being it's not logo free.
    I tried to add an lossless audio option, and with 2 versions of the songs from the UK and Canada CD pressings, and with the 24bit version from the 2018 remasters, but could not sync with any of those - guess the video has a different running speed. Any help with how I could solve that would be welcome! I'd be glad to share a version with a remastered audio!

    Hope you enjoy it! :blush:
    Hidden Content:
    You must reply before you can see the hidden data contained here.
     
    agnus2000 and Satya like this.
  2. marco25

    marco25 Well-Known Member

    Joined:
    Oct 5, 2016
    Messages:
    1,913
    Likes Received:
    1,286
    thanks
     
    lennyleonard likes this.
  3. FunkMan 2099

    FunkMan 2099 New Member

    Joined:
    Jan 28, 2017
    Messages:
    20
    Likes Received:
    0
    Thanks for this Beauty!
     
  4. Matheus Borges

    Matheus Borges Active Member

    Joined:
    Oct 20, 2014
    Messages:
    222
    Likes Received:
    86
  5. fijacionoral

    fijacionoral New Member

    Joined:
    Aug 24, 2019
    Messages:
    7
    Likes Received:
    2
    thanks
     
  6. yanpj7

    yanpj7 Active Member

    Joined:
    Jan 4, 2015
    Messages:
    469
    Likes Received:
    35
    thanks
     
  7. Satya

    Satya Active Member

    Joined:
    Jul 17, 2019
    Messages:
    277
    Likes Received:
    63
    Thanks
     
  8. pinkyfloyd

    pinkyfloyd Active Member

    Joined:
    Aug 15, 2016
    Messages:
    707
    Likes Received:
    61
    thanks
     
  9. agnus2000

    agnus2000 Member

    Joined:
    Feb 16, 2018
    Messages:
    392
    Likes Received:
    6
    Thanks