KARA - Damaged Lady (Mnet Japan HD)

Discussion in 'MNET' started by yukides, Apr 22, 2014.

  1. yukides

    yukides Active Member

    Joined:
    Nov 15, 2013
    Messages:
    202
    Likes Received:
    116
    KARA - Damaged Lady (Mnet Japan HD)

    [​IMG]
    Code:
    Format                                   : MPEG-TS
    File size                                : 177 MiB
    Duration                                 : 3mn 7s
    Start time                               : UTC 2013-11-03 18:15:05
    End time                                 : UTC 2013-11-03 18:18:10
    Overall bit rate mode                    : Variable
    Overall bit rate                         : 7 840 Kbps
    Network name                             : |¹«Ñù!
    Original network name                    : Astra 8
    
    Video
    ID                                       : 4100 (0x1004)
    Menu ID                                  : 33426 (0x8292)
    Format                                   : AVC
    Format/Info                              : Advanced Video Codec
    Format profile                           : Main@L4.0
    Format settings, CABAC                   : Yes
    Format settings, ReFrames                : 4 frames
    Codec ID                                 : 27
    Duration                                 : 3mn 8s
    Bit rate mode                            : Variable
    Bit rate                                 : 7 311 Kbps
    Maximum bit rate                         : 20.0 Mbps
    Width                                    : 1 440 pixels
    Height                                   : 1 080 pixels
    Display aspect ratio                     : 16:9
    Frame rate                               : 29.970 fps
    Standard                                 : Component
    Color space                              : YUV
    Chroma subsampling                       : 4:2:0
    Bit depth                                : 8 bits
    Scan type                                : Interlaced
    Bits/(Pixel*Frame)                       : 0.157
    Stream size                              : 164 MiB (93%)
    Color primaries                          : BT.709
    Transfer characteristics                 : BT.709
    Matrix coefficients                      : BT.709
    
    Audio
    ID                                       : 4164 (0x1044)
    Menu ID                                  : 33426 (0x8292)
    Format                                   : AAC
    Format/Info                              : Advanced Audio Codec
    Format version                           : Version 2
    Format profile                           : LC
    Muxing mode                              : ADTS
    Codec ID                                 : 15
    Duration                                 : 3mn 8s
    Bit rate mode                            : Variable
    Bit rate                                 : 141 Kbps
    Channel(s)                               : 2 channels
    Channel positions                        : Front: L R
    Sampling rate                            : 48.0 KHz
    Compression mode                         : Lossy
    Delay relative to video                  : -489ms
    Stream size                              : 3.17 MiB (2%)
    
    Menu
    ID                                       : 1028 (0x404)
    Menu ID                                  : 33426 (0x8292)
    Duration                                 : 3mn 7s
    List                                     : 4100 (0x1004) (AVC) / 4164 (0x1044) (AAC)
    Service name                             : Mnet!!HD
    Service type                             : digital television
    Link
    Hidden Content:
    You must reply before you can see the hidden data contained here.
     
    rhea likes this.
  2. rhea

    rhea Well-Known Member

    Joined:
    Jan 6, 2014
    Messages:
    7,842
    Likes Received:
    999
    thanks
     
  3. noobster

    noobster Member

    Joined:
    Mar 16, 2014
    Messages:
    144
    Likes Received:
    2
    cheers
     
  4. gstnedgrdrch93

    gstnedgrdrch93 Member

    Joined:
    Oct 12, 2014
    Messages:
    85
    Likes Received:
    3
     
  5. kana3245

    kana3245 Member

    Joined:
    Aug 15, 2016
    Messages:
    586
    Likes Received:
    17
    thank you
     
  6. miyara

    miyara My reputation died in this forum V . I . P. Uploader

    Joined:
    Feb 21, 2016
    Messages:
    1,034
    Likes Received:
    3,560
    Thanks.
     
  7. daz001

    daz001 New Member

    Joined:
    Feb 10, 2017
    Messages:
    4
    Likes Received:
    0
    thank
     
  8. lovegungun

    lovegungun Member

    Joined:
    Dec 8, 2017
    Messages:
    88
    Likes Received:
    7
    Thanks
    Thanks