Kacey Musgraves - Follow Your Arrow (GACHD) 1080i H.264 DD2.0-HDMania

Discussion in 'GAC HD' started by RGF72K, Jan 23, 2015.

  1. RGF72K

    RGF72K ????? Staff Member Super Moderator

    Joined:
    Oct 1, 2013
    Messages:
    1,020
    Likes Received:
    14,118
    [​IMG] [​IMG] [​IMG] [​IMG] [​IMG] [​IMG] [​IMG] [​IMG] [​IMG]

    General
    ID : 1 (0x1)
    Complete name : Kacey Musgraves - Follow Your Arrow (GACHD) 1080i H.264 DD2.0-HDMania.ts
    Format : MPEG-TS
    File size : 353 MiB
    Duration : 3mn 27s
    Overall bit rate mode : Variable
    Overall bit rate : 14.2 Mbps

    Video
    ID : 4113 (0x1011)
    Menu ID : 1 (0x1)
    Format : AVC
    Format/Info : Advanced Video Codec
    Format profile : Main@L4.0
    Format settings, CABAC : Yes
    Format settings, ReFrames : 4 frames
    Format settings, GOP : M=3, N=24
    Codec ID : 27
    Duration : 3mn 27s
    Bit rate mode : Variable
    Bit rate : 13.1 Mbps
    Maximum bit rate : 20.0 Mbps
    Width : 1 920 pixels
    Height : 1 080 pixels
    Display aspect ratio : 16:9
    Frame rate : 29.970 fps
    Color space : YUV
    Chroma subsampling : 4:2:0
    Bit depth : 8 bits
    Scan type : Interlaced
    Scan order : Top Field First
    Bits/(Pixel*Frame) : 0.211
    Stream size : 326 MiB (92%)
    Color primaries : BT.709
    Transfer characteristics : BT.709
    Matrix coefficients : BT.709
    Color range : Limited

    Audio
    ID : 4352 (0x1100)
    Menu ID : 1 (0x1)
    Format : AC-3
    Format/Info : Audio Coding 3
    Mode extension : CM (complete main)
    Format settings, Endianness : Big
    Codec ID : 129
    Duration : 3mn 27s
    Bit rate mode : Constant
    Bit rate : 384 Kbps
    Channel(s) : 2 channels
    Channel positions : Front: L R
    Sampling rate : 48.0 KHz
    Bit depth : 16 bits
    Compression mode : Lossy
    Stream size : 9.52 MiB (3%)
    Language : English

    Download:
    Hidden Content:
    You must either reply or click 'Like' to see the hidden information contained here.

    Capped by Me :victory:
     
    eykhilde, JasonKay, Darkangel and 5 others like this.
  2. dgnio

    dgnio Well-Known Member

    Joined:
    Jul 7, 2014
    Messages:
    1,522
    Likes Received:
    292
    The admin and founder caping great!!god safe u ..thnks ver very much.plz keep uploading from country music videos..my friend is there show for example like the fuse take over or loaded..it only 1 hour or 2hour shown the top music videos from 1 artist ..plz more upload from theas shows.axstv music videos.gac videos from 1artist .video graphy.plz.thnks.ver very suprised us!
     
  3. Ross

    Ross Active Member

    Joined:
    Oct 19, 2014
    Messages:
    267
    Likes Received:
    32
    Amazing thanks
     
  4. rhea

    rhea Well-Known Member

    Joined:
    Jan 6, 2014
    Messages:
    5,258
    Likes Received:
    253
    thank you so much
     
  5. dgnio

    dgnio Well-Known Member

    Joined:
    Jul 7, 2014
    Messages:
    1,522
    Likes Received:
    292
    thanks tanks
     
  6. indreams2011

    indreams2011 Member

    Joined:
    Dec 10, 2014
    Messages:
    663
    Likes Received:
    19
     
  7. rollergirl1606

    rollergirl1606 Member

    Joined:
    Oct 31, 2014
    Messages:
    543
    Likes Received:
    9
  8. Eddie Solo

    Eddie Solo Member

    Joined:
    Oct 16, 2013
    Messages:
    312
    Likes Received:
    11
    thank you
     
  9. multimediafm

    multimediafm Well-Known Member Donor

    Joined:
    Mar 27, 2014
    Messages:
    8,290
    Likes Received:
    341
    Thanks :love:
    Kacey Musgraves - Follow Your Arrow (GACHD) 1080i H.264 DD2.0-HDMania
     
  10. bbb777

    bbb777 Member

    Joined:
    Mar 2, 2016
    Messages:
    81
    Likes Received:
    1
    thanks
     
  11. stalin99

    stalin99 New Member

    Joined:
    Jan 2, 2016
    Messages:
    26
    Likes Received:
    1
    thank you
     
  12. andy80

    andy80 Member

    Joined:
    Sep 25, 2016
    Messages:
    51
    Likes Received:
    7
    Amazing thanks