Justin Timberlake - Señorita (PROMO ONLY) [ALAC-HEVC-1080P-Upscaled]

Discussion in 'UPSCALED' started by WDRB_GSZMZ, Jan 24, 2021.

  1. WDRB_GSZMZ

    WDRB_GSZMZ Well-Known Member

    Joined:
    Mar 23, 2018
    Messages:
    834
    Likes Received:
    362
    sorry i don't know how to deal with all these rainbows and dot crawls...[​IMG]
    General
    Format : MPEG-4
    Format profile : Base Media
    Codec ID : isom (isom)
    File size : 226 MiB
    Duration : 4 min 36 s
    Overall bit rate mode : Variable
    Overall bit rate : 6 867 kb/s
    Encoded date : UTC 2021-01-24 11:06:57
    Tagged date : UTC 2021-01-24 11:06:57

    Video
    ID : 1
    Format : HEVC
    Format/Info : High Efficiency Video Coding
    Format profile : Main 10@L4@Main
    Codec ID : hvc1
    Codec ID/Info : High Efficiency Video Coding
    Duration : 4 min 36 s
    Bit rate : 5 857 kb/s
    Maximum bit rate : 10.8 Mb/s
    Width : 1 400 pixels
    Height : 1 080 pixels
    Display aspect ratio : 1.296
    Frame rate mode : Constant
    Frame rate : 29.970 (29970/1000) FPS
    Original frame rate : 29.970 (30000/1001) FPS
    Color space : YUV
    Chroma subsampling : 4:2:0
    Bit depth : 10 bits
    Bits/(Pixel*Frame) : 0.129
    Stream size : 193 MiB (85%)
    Encoded date : UTC 2021-01-24 10:42:28
    Tagged date : UTC 2021-01-24 11:06:57
    Codec configuration box : hvcC

    Audio
    ID : 2
    Format : ALAC
    Codec ID : alac
    Codec ID/Info : Apple Lossless Audio Codec
    Duration : 4 min 36 s
    Duration_LastFrame : -32 ms
    Bit rate mode : Variable
    Bit rate : 1 007 kb/s
    Maximum bit rate : 1 153 kb/s
    Channel(s) : 2 channels
    Sampling rate : 48.0 kHz
    Bit depth : 16 bits
    Stream size : 33.2 MiB (15%)
    Default : Yes
    Alternate group : 1
    Tagged date : UTC 2021-01-24 11:06:57
    Hidden Content:
    You must reply before you can see the hidden data contained here.
     
    TGO likes this.
  2. Loading...


  3. TGO

    TGO Well-Known Member Donor

    Joined:
    Sep 28, 2017
    Messages:
    523
    Likes Received:
    325
  4. WDRB_GSZMZ

    WDRB_GSZMZ Well-Known Member

    Joined:
    Mar 23, 2018
    Messages:
    834
    Likes Received:
    362
    yes please...and if you know how to deal with those issues plz plz plz teach me:cry:
     
  5. TGO

    TGO Well-Known Member Donor

    Joined:
    Sep 28, 2017
    Messages:
    523
    Likes Received:
    325
    Did you use checkmate filter?
    As for feedback
    A little too clean, like too much DNR has been used.
    Probably dial back in that
     
  6. WDRB_GSZMZ

    WDRB_GSZMZ Well-Known Member

    Joined:
    Mar 23, 2018
    Messages:
    834
    Likes Received:
    362
    i didn't. thanks! lemme do some research on it
     
  7. henri_quex

    henri_quex Well-Known Member

    Joined:
    May 15, 2018
    Messages:
    2,774
    Likes Received:
    548
  8. Messi

    Messi Active Member

    Joined:
    Mar 18, 2016
    Messages:
    397
    Likes Received:
    36
    Thanks
     
  9. danyedu

    danyedu Member

    Joined:
    Dec 28, 2016
    Messages:
    880
    Likes Received:
    15
    Thanks!
     
  10. Tiago

    Tiago Well-Known Member

    Joined:
    Dec 7, 2013
    Messages:
    3,826
    Likes Received:
    574
    thanks
     
  11. georgius72

    georgius72 Member

    Joined:
    Dec 9, 2020
    Messages:
    91
    Likes Received:
    0
  12. JPGAmbrosino

    JPGAmbrosino Well-Known Member

    Joined:
    Jul 30, 2016
    Messages:
    4,102
    Likes Received:
    172
    txsssssssss
     
  13. ethan03

    ethan03 Active Member

    Joined:
    Dec 9, 2016
    Messages:
    438
    Likes Received:
    39
    Thanks
     
  14. gian

    gian Member

    Joined:
    Jan 17, 2021
    Messages:
    132
    Likes Received:
    1
    thanks
     
  15. gian

    gian Member

    Joined:
    Jan 17, 2021
    Messages:
    132
    Likes Received:
    1
    thanks
     
  16. gian

    gian Member

    Joined:
    Jan 17, 2021
    Messages:
    132
    Likes Received:
    1
    thanks