Justin Timberlake - Cry Me A River (MTVIDOL-1080i-DD2.0-Djodjara)-HDMania

Discussion in 'MTV IDOL' started by Djodjara, May 26, 2015.

  1. Djodjara

    Djodjara Gwen Fan Capper V . I . P.

    Joined:
    Sep 6, 2014
    Messages:
    1,445
    Likes Received:
    3,372
    Justin Timberlake - Cry Me A River (MTV Idol-1080i-Djodjara)-HDMania

    [​IMG]
    [​IMG]

    General:
    ID : 1 (0x1)
    Format : MPEG-TS
    File size : 134 MiB
    Duration : 4mn 36s
    Overall bit rate mode : Variable
    Overall bit rate : 4 079 Kbps

    Video:
    ID : 310 (0x136)
    Menu ID : 1 (0x1)
    Format : AVC
    Format/Info : Advanced Video Codec
    Format profile : High@L4.0
    Format settings, CABAC : Yes
    Format settings, ReFrames : 4 frames
    Codec ID : 27
    Duration : 4mn 36s
    Bit rate : 3 684 Kbps
    Width : 1 920 pixels
    Height : 1 080 pixels
    Display aspect ratio : 16:9
    Frame rate : 25.000 fps
    Standard : Component
    Color space : YUV
    Chroma subsampling : 4:2:0
    Bit depth : 8 bits
    Scan type : MBAFF
    Scan order : Top Field First
    Bits/(Pixel*Frame) : 0.071
    Stream size : 121 MiB (90%)
    Color primaries : BT.709
    Transfer characteristics : BT.709
    Matrix coefficients : BT.709
    Color range : Limited

    Audio:
    ID : 321 (0x141)
    Menu ID : 1 (0x1)
    Format : AC-3
    Format/Info : Audio Coding 3
    Mode extension : CM (complete main)
    Format settings, Endianness : Big
    Codec ID : 6
    Duration : 4mn 36s
    Bit rate mode : Constant
    Bit rate : 192 Kbps
    Channel(s) : 2 channels
    Channel positions : Front: L R
    Sampling rate : 48.0 KHz
    Bit depth : 16 bits
    Compression mode : Lossy
    Stream size : 6.32 MiB (5%)
    Language : French

    Hidden Content:
    You must reply before you can see the hidden data contained here.

     
    lordwoon, rhea, Dreamer and 2 others like this.
  2. 777josem

    777josem ProRes 1080p LPCM V . I . P. Uploader

    Joined:
    Sep 1, 2014
    Messages:
    3,886
    Likes Received:
    5,477
    :happy:Thank you so much!
     
  3. Dreamer

    Dreamer Lana Del Slay V . I . P. Uploader

    Joined:
    Dec 4, 2014
    Messages:
    3,210
    Likes Received:
    11,031
    Thank you
     
  4. rhea

    rhea Well-Known Member

    Joined:
    Jan 6, 2014
    Messages:
    11,480
    Likes Received:
    2,207
    thank you so much :)
     
  5. Crusha

    Crusha Well-Known Member Capper V . I . P.

    Joined:
    Oct 15, 2014
    Messages:
    2,574
    Likes Received:
    4,159
    thank you :)
     
  6. wattjunior

    wattjunior Member

    Joined:
    Dec 10, 2015
    Messages:
    451
    Likes Received:
    14
    thank uu
     
  7. Snorom6

    Snorom6 Well-Known Member V . I . P. Uploader

    Joined:
    Dec 17, 2015
    Messages:
    4,246
    Likes Received:
    8,984
    thoth
     
  8. Jrec

    Jrec Active Member

    Joined:
    May 11, 2016
    Messages:
    715
    Likes Received:
    54
    Thanks
     
  9. jpzster

    jpzster Member

    Joined:
    Jun 16, 2016
    Messages:
    30
    Likes Received:
    0
    thanks
     
  10. lordwoon

    lordwoon New Member

    Joined:
    Aug 10, 2016
    Messages:
    5
    Likes Received:
    0
    thanks
     
  11. braciata

    braciata Well-Known Member

    Joined:
    Oct 16, 2014
    Messages:
    376
    Likes Received:
    801
    thxxxxxxxx
     
  12. rikylouis14

    rikylouis14 Well-Known Member

    Joined:
    Jun 27, 2016
    Messages:
    1,020
    Likes Received:
    1,335
  13. 1asad1

    1asad1 Member

    Joined:
    Apr 23, 2016
    Messages:
    175
    Likes Received:
    13
    thank you
     
  14. badine82

    badine82 Member

    Joined:
    Oct 24, 2015
    Messages:
    571
    Likes Received:
    18
  15. DiVenturas

    DiVenturas Well-Known Member

    Joined:
    Oct 21, 2015
    Messages:
    3,485
    Likes Received:
    233
  16. DiVenturas

    DiVenturas Well-Known Member

    Joined:
    Oct 21, 2015
    Messages:
    3,485
    Likes Received:
    233
  17. cotoipa

    cotoipa Active Member

    Joined:
    Jun 24, 2017
    Messages:
    528
    Likes Received:
    28
    thanks
     
  18. lim

    lim Well-Known Member

    Joined:
    Nov 8, 2013
    Messages:
    2,830
    Likes Received:
    106
    thanks
     
  19. brownbradpitt613

    brownbradpitt613 Active Member

    Joined:
    Sep 3, 2017
    Messages:
    755
    Likes Received:
    32
    thanks!!!
     
  20. seregil

    seregil Active Member

    Joined:
    Sep 5, 2014
    Messages:
    340
    Likes Received:
    35
    thanks