Justin Bieber - Love Yourself (BIS.HD.1080i.DD5.1).-Crusha

Discussion in 'BIS HD' started by Crusha, Feb 1, 2016.

  1. Crusha

    Crusha Well-Known Member Capper

    Joined:
    Oct 15, 2014
    Messages:
    2,350
    Likes Received:
    2,292
    [​IMG]

    Mediainfo
    General
    ID : 1 (0x1)
    Complete name : Justin Bieber - Love Yourself (BIS.HD.1080i.DD5.1).-Crusha.ts
    Format : MPEG-TS
    File size : 84.4 MiB
    Duration : 3mn 49s
    Overall bit rate mode : Variable
    Overall bit rate : 3 079 Kbps

    Video
    ID : 2027 (0x7EB)
    Menu ID : 802 (0x322)
    Format : AVC
    Format/Info : Advanced Video Codec
    Format profile : [email protected]
    Format settings, CABAC : Yes
    Format settings, ReFrames : 4 frames
    Format settings, GOP : M=3, N=24
    Codec ID : 27
    Duration : 3mn 49s
    Bit rate : 2 539 Kbps
    Width : 1 920 pixels
    Height : 1 080 pixels
    Display aspect ratio : 16:9
    Frame rate : 29.970 fps
    Standard : Component
    Color space : YUV
    Chroma subsampling : 4:2:0
    Bit depth : 8 bits
    Scan type : MBAFF
    Scan order : Top Field First
    Bits/(Pixel*Frame) : 0.041
    Stream size : 69.5 MiB (82%)
    Color range : Limited
    Color primaries : BT.709
    Transfer characteristics : BT.709
    Matrix coefficients : BT.709

    Audio
    ID : 3027 (0xBD3)
    Menu ID : 802 (0x322)
    Format : AC-3
    Format/Info : Audio Coding 3
    Mode extension : CM (complete main)
    Format settings, Endianness : Big
    Codec ID : 6
    Duration : 3mn 49s
    Bit rate mode : Constant
    Bit rate : 384 Kbps
    Channel(s) : 6 channels
    Channel positions : Front: L C R, Side: L R, LFE
    Sampling rate : 48.0 KHz
    Bit depth : 16 bits
    Compression mode : Lossy
    Stream size : 10.5 MiB (12%)
    Language : English

    Hidden Content:
    You must either reply or click 'Like' to see the hidden information contained here.
    Password:
    crusha
     
    tsm897 likes this.
  2. tranmanduy

    tranmanduy Member

    Joined:
    Jan 5, 2017
    Messages:
    153
    Likes Received:
    3
    so good