Justin Bieber - I'll Show You (One.by HD 1080i) - dan93star

Discussion in 'One.by HD' started by Dreamer, Nov 5, 2015.

  1. Dreamer

    Dreamer Lana Del Rey ♥ Halsey Capper V . I . P. Uploader

    Joined:
    Dec 4, 2014
    Messages:
    2,805
    Likes Received:
    3,936
    Justin Bieber - I'll Show You (One.by HD)

    [​IMG]


    General
    ID : 0 (0x0)
    Complete name : C:\Users\DK\Desktop\Justin Bieber - I'll Show You (One.by HD).ts
    Format : MPEG-TS
    File size : 107 MiB
    Duration : 3mn 10s
    Overall bit rate mode : Variable
    Overall bit rate : 4 720 Kbps
    Maximum Overall bit rate : 4 576 Kbps

    Video
    ID : 4113 (0x1011)
    Menu ID : 1 (0x1)
    Format : AVC
    Format/Info : Advanced Video Codec
    Format profile : [email protected]
    Format settings, CABAC : Yes
    Format settings, ReFrames : 2 frames
    Codec ID : 27
    Duration : 3mn 10s
    Bit rate : 4 332 Kbps
    Width : 1 920 pixels
    Height : 1 080 pixels
    Display aspect ratio : 16:9
    Frame rate : 25.000 fps
    Color space : YUV
    Chroma subsampling : 4:2:0
    Bit depth : 8 bits
    Scan type : Progressive
    Bits/(Pixel*Frame) : 0.084
    Stream size : 98.3 MiB (92%)

    Audio
    ID : 4352 (0x1100)
    Menu ID : 1 (0x1)
    Format : AC-3
    Format/Info : Audio Coding 3
    Mode extension : CM (complete main)
    Format settings, Endianness : Big
    Codec ID : 129
    Duration : 3mn 10s
    Bit rate mode : Constant
    Bit rate : 192 Kbps
    Channel(s) : 2 channels
    Channel positions : Front: L R
    Sampling rate : 48.0 KHz
    Compression mode : Lossy
    Stream size : 4.36 MiB (4%)

    Capped By Me

    Hidden Content:
    You must reply before you can see the hidden data contained here.
     
    DETOX, rhea and CELOBRAZiL like this.
  2. Loading...


  3. Dreamer

    Dreamer Lana Del Rey ♥ Halsey Capper V . I . P. Uploader

    Joined:
    Dec 4, 2014
    Messages:
    2,805
    Likes Received:
    3,936
    But your caps are the best anyway. :victory::)
     
  4. Mihaly Halasz

    Mihaly Halasz Member

    Joined:
    Nov 23, 2013
    Messages:
    44
    Likes Received:
    0
    thank you
     
  5. rhea

    rhea Well-Known Member

    Joined:
    Jan 6, 2014
    Messages:
    6,620
    Likes Received:
    681
    thank you so much
     
  6. Zatimi

    Zatimi Active Member

    Joined:
    Aug 27, 2014
    Messages:
    719
    Likes Received:
    131
    Thanks so much
     
  7. Crusha

    Crusha Well-Known Member Capper V . I . P.

    Joined:
    Oct 15, 2014
    Messages:
    2,356
    Likes Received:
    2,523
    thank you