Justin Bieber "Boyfriend" [PCM16 Avid-DNxHD 720p]

Discussion in 'PRORES HD' started by dgol22, Apr 1, 2020.

  1. dgol22

    dgol22 Well-Known Member

    Joined:
    Sep 2, 2018
    Messages:
    286
    Likes Received:
    354

    Justin Bieber "Boyfriend" [PCM16 Avid-DNxHD 720p]


    [​IMG]


    [​IMG]


    General
    Complete name: JustinBieber_Boyfriend_FINAL_0430_Delivery-Apple ProRes 422 (HQ)-Avid DNxHD.mov
    Format : MPEG-4
    Format profile : QuickTime
    Codec ID : qt
    File size : 1.19 GiB
    Duration : 2mn 51s
    Overall bit rate : 59.7 Mbps
    Encoded date : UTC 2012-07-16 19:24:29
    Tagged date : UTC 2012-11-21 07:17:22
    Writing library : Apple QuickTime
    ©TSC : 2997
    ©TSZ : 125

    Video
    ID : 1
    Format : VC-3
    Codec ID : AVdn
    Codec ID/Info : Avid
    Codec ID/Hint : DNxHD
    Duration : 2mn 51s
    Bit rate mode : Constant
    Bit rate : 58.1 Mbps
    Width : 1 248 pixels
    Original width : 1 280 pixels
    Height : 702 pixels
    Original height : 720 pixels
    Display aspect ratio : 16:9
    Frame rate mode : Constant
    Frame rate : 23.976 fps
    Color space : YUV
    Chroma subsampling : 4:2:2
    Bit depth : 8 bits
    Scan type : Progressive
    Bits/(Pixel*Frame) : 2.768
    Stream size : 1.16 GiB (97%)
    Language : English
    Encoded date : UTC 2012-07-16 19:24:29
    Tagged date : UTC 2012-07-16 19:27:01

    Audio
    ID : 2
    Format : PCM
    Format settings, Endianness : Little
    Format settings, Sign : Signed
    Codec ID : sowt
    Duration : 2mn 51s
    Bit rate mode : Constant
    Bit rate : 1 536 Kbps
    Channel(s) : 2 channels
    Channel positions : Front: L R
    Sampling rate : 48.0 KHz
    Bit depth : 16 bits
    Stream size : 31.3 MiB (3%)
    Language : English
    Encoded date : UTC 2012-07-16 19:24:29
    Tagged date : UTC 2012-07-16 19:27:01

    Other
    ID : 3
    Type : Time code
    Format : QuickTime TC
    Duration : 2mn 51s
    Time code of first frame : 00:02:00:13
    Time code settings : Striped
    Language : English
    Encoded date : UTC 2012-07-16 19:27:01
    Tagged date : UTC 2012-07-16 19:27:01


    Hidden Content:
    You must reply before you can see the hidden data contained here.
     
    Last edited: Apr 5, 2020
    pelusa91, Romana, Dreamer and 3 others like this.
  2. Loading...


  3. vitalya3

    vitalya3 Well-Known Member

    Joined:
    Dec 4, 2017
    Messages:
    1,621
    Likes Received:
    1,945
    thanks
     
  4. henri_quex

    henri_quex Well-Known Member

    Joined:
    May 15, 2018
    Messages:
    2,467
    Likes Received:
    339
    Thank you!
     
  5. Jenkins

    Jenkins Well-Known Member

    Joined:
    May 30, 2019
    Messages:
    24,612
    Likes Received:
    640
    THANKS!
     
  6. Dave

    Dave Well-Known Member V . I . P.

    Joined:
    Jun 2, 2015
    Messages:
    2,603
    Likes Received:
    3,214
    gracias :) :love:
     
  7. TomArrowich

    TomArrowich Member

    Joined:
    Sep 3, 2017
    Messages:
    182
    Likes Received:
    4
  8. propz

    propz Active Member

    Joined:
    Mar 20, 2019
    Messages:
    142
    Likes Received:
    120
    thanks
     
  9. L3WY

    L3WY Active Member

    Joined:
    Jun 22, 2018
    Messages:
    643
    Likes Received:
    58
    thanks
     
  10. Tiago

    Tiago Well-Known Member

    Joined:
    Dec 7, 2013
    Messages:
    3,200
    Likes Received:
    177
    thanks
     
  11. MarKZ

    MarKZ Member

    Joined:
    Jun 30, 2019
    Messages:
    300
    Likes Received:
    7
    thanks
     
  12. jeaneyne

    jeaneyne Well-Known Member

    Joined:
    Oct 21, 2013
    Messages:
    1,847
    Likes Received:
    625
    thanks
     
  13. fucha

    fucha Member

    Joined:
    Apr 23, 2014
    Messages:
    84
    Likes Received:
    12
    thanks
     
  14. siralex

    siralex Member

    Joined:
    Jun 12, 2016
    Messages:
    607
    Likes Received:
    23
    thanks
     
  15. youandme_nt2010

    youandme_nt2010 Member

    Joined:
    May 1, 2014
    Messages:
    197
    Likes Received:
    2
  16. JohnMusik

    JohnMusik Member

    Joined:
    Apr 26, 2018
    Messages:
    199
    Likes Received:
    1
    Thank you
     
  17. amandeeps777

    amandeeps777 Active Member

    Joined:
    Jul 11, 2014
    Messages:
    113
    Likes Received:
    66
    omg thanks!
     
  18. Haunted

    Haunted Active Member

    Joined:
    Feb 28, 2020
    Messages:
    119
    Likes Received:
    163
    thanks
     
  19. tn5656

    tn5656 Well-Known Member

    Joined:
    Jan 20, 2017
    Messages:
    7,704
    Likes Received:
    441
    Thanks a lot !!!!
     
  20. pyppyp

    pyppyp Member

    Joined:
    Mar 6, 2017
    Messages:
    536
    Likes Received:
    12
    thanks
     
  21. Vinny

    Vinny Well-Known Member

    Joined:
    Dec 26, 2013
    Messages:
    4,605
    Likes Received:
    71
    Thanks