Juan Magán ft. Belinda - Te Voy a Esperar (TELEHIT.HD.1080i.DD2.0).-Crusha

Discussion in 'TELEHIT HD' started by Crusha, Mar 11, 2016.

  1. Crusha

    Crusha Well-Known Member Capper

    Joined:
    Oct 15, 2014
    Messages:
    2,350
    Likes Received:
    2,131
    [​IMG]

    Mediainfo
    General
    ID : 1 (0x1)
    Complete name : Juan Magán ft. Belinda - Te Voy a Esperar (TELEHIT.HD.1080i.DD2.0).-Crusha.ts
    Format : MPEG-TS
    File size : 90.5 MiB
    Duration : 3mn 36s
    Overall bit rate mode : Variable
    Overall bit rate : 3 498 Kbps

    Video
    ID : 2238 (0x8BE)
    Menu ID : 857 (0x359)
    Format : AVC
    Format/Info : Advanced Video Codec
    Format profile : High@L4
    Format settings, CABAC : Yes
    Format settings, ReFrames : 4 frames
    Format settings, GOP : M=3, N=24
    Codec ID : 27
    Duration : 3mn 36s
    Bit rate : 3 132 Kbps
    Width : 1 920 pixels
    Height : 1 080 pixels
    Display aspect ratio : 16:9
    Frame rate : 29.970 fps
    Standard : Component
    Color space : YUV
    Chroma subsampling : 4:2:0
    Bit depth : 8 bits
    Scan type : MBAFF
    Scan order : Top Field First
    Bits/(Pixel*Frame) : 0.050
    Stream size : 81.0 MiB (90%)
    Color range : Limited
    Color primaries : BT.709
    Transfer characteristics : BT.709
    Matrix coefficients : BT.709

    Audio
    ID : 3849 (0xF09)
    Menu ID : 857 (0x359)
    Format : AC-3
    Format/Info : Audio Coding 3
    Mode extension : CM (complete main)
    Format settings, Endianness : Big
    Codec ID : 6
    Duration : 3mn 36s
    Bit rate mode : Constant
    Bit rate : 192 Kbps
    Channel(s) : 2 channels
    Channel positions : Front: L R
    Sampling rate : 48.0 KHz
    Bit depth : 16 bits
    Compression mode : Lossy
    Stream size : 4.97 MiB (5%)
    Language : English

    Hidden Content:
    You must reply before you can see the hidden data contained here.
    Password:
    crusha
     
    revilo18 likes this.
  2. arnold

    arnold Member

    Joined:
    Oct 29, 2014
    Messages:
    232
    Likes Received:
    3
    thank you
     
  3. revilo18

    revilo18 Well-Known Member

    Joined:
    May 26, 2016
    Messages:
    1,310
    Likes Received:
    55
    THANK
     
  4. Kaiquegpp

    Kaiquegpp Member

    Joined:
    Jul 7, 2014
    Messages:
    370
    Likes Received:
    13
    Thak you