HDTV Jorge & Matheus - Villa Mix Festival [01-Jul-2018] MULTISHOWHD 1080i HDTV DD5.1 H.264 CELOBRAZiL

Discussion in 'HD Live Performances' started by CELOBRAZiL, Jul 11, 2018.

  1. CELOBRAZiL

    CELOBRAZiL Well-Known Member Capper V . I . P. Donor

    Joined:
    Oct 2, 2013
    Messages:
    5,363
    Likes Received:
    17,151
    Jorge & Matheus - Villa Mix Festival [01-Jul-2018] MULTISHOWHD 1080i HDTV DD5.1 H.264 CELOBRAZiL-HDMania

    [​IMG]



    Format : MPEG-TS
    File size : 8.48 GiB
    Duration : 1 h 30 min
    Overall bit rate mode : Variable
    Overall bit rate : 13.4 Mb/s

    Video
    ID : 1328 (0x530)
    Menu ID : 1336 (0x538)
    Format : AVC
    Format/Info : Advanced Video Codec
    Format profile : High@L4
    Format settings : CABAC / 4 Ref Frames
    Format settings, CABAC : Yes
    Format settings, RefFrames : 4 frames
    Codec ID : 27
    Duration : 1 h 30 min
    Bit rate : 12.4 Mb/s
    Width : 1 920 pixels
    Height : 1 080 pixels
    Display aspect ratio : 16:9
    Frame rate : 29.970 (30000/1001) FPS
    Color space : YUV
    Chroma subsampling : 4:2:0
    Bit depth : 8 bits
    Scan type : MBAFF
    Scan type, store method : Interleaved fields
    Scan order : Top Field First
    Bits/(Pixel*Frame) : 0.199
    Stream size : 7.82 GiB (92%)

    Audio
    ID : 1329 (0x531)
    Menu ID : 1336 (0x538)
    Format : AC-3
    Format/Info : Audio Coding 3
    Codec ID : 129
    Duration : 1 h 30 min
    Bit rate mode : Constant
    Bit rate : 384 kb/s
    Channel(s) : 6 channels
    Channel positions : Front: L C R, Side: L R, LFE
    Sampling rate : 48.0 kHz
    Frame rate : 31.250 FPS (1536 SPF)
    Bit depth : 16 bits
    Compression mode : Lossy
    Stream size : 248 MiB (3%)
    Language : English
    Service kind : Complete Main


    Link(s):
    Hidden Content:
    You must either reply or click 'Like' to see the hidden information contained here.
     
    jonatas469 and frisby like this.
  2. Loading...


  3. Thais Fernandes

    Thais Fernandes Member

    Joined:
    Jul 2, 2018
    Messages:
    42
    Likes Received:
    2
    Thanks
     
    CELOBRAZiL likes this.
  4. jonatas469

    jonatas469 Member

    Joined:
    Sep 28, 2015
    Messages:
    111
    Likes Received:
    15
    Obrigadoo, você tem do wesley safadão?
     
    CELOBRAZiL likes this.
  5. Fabio Barbosa

    Fabio Barbosa Active Member

    Joined:
    Sep 28, 2015
    Messages:
    489
    Likes Received:
    210
    Thanks
     
    CELOBRAZiL likes this.
  6. estebania

    estebania Well-Known Member

    Joined:
    Dec 2, 2016
    Messages:
    441
    Likes Received:
    368
    thanks
     
    CELOBRAZiL likes this.
  7. Thais Fernandes

    Thais Fernandes Member

    Joined:
    Jul 2, 2018
    Messages:
    42
    Likes Received:
    2
    Alguem gravou o do Luan Santana ?
     
  8. lok111

    lok111 Member

    Joined:
    Jun 28, 2017
    Messages:
    104
    Likes Received:
    20
    obrigado celo!!