HDTV Jorge & Mateus - VillaMix Festival Goiânia [Jun-30-2019] MULTISHOWHD 1080i HDTV DD5.1 H.264 CELOBRAZ

Discussion in 'HD Live Performances' started by CELOBRAZiL, Jul 16, 2019.

  1. CELOBRAZiL

    CELOBRAZiL Well-Known Member Capper V . I . P. Donor

    Joined:
    Oct 2, 2013
    Messages:
    8,030
    Likes Received:
    28,281
    Jorge & Mateus - VillaMix Festival Goiânia [Jun-30-2019] MULTISHOWHD 1080i HDTV DD5.1 H.264 CELOBRAZiL-HDMania

    [​IMG]



    Format : MPEG-TS
    File size : 7.67 GiB
    Duration : 1 h 21 min
    Overall bit rate mode : Variable
    Overall bit rate : 13.5 Mb/s

    Video
    ID : 1328 (0x530)
    Menu ID : 1336 (0x538)
    Format : AVC
    Format/Info : Advanced Video Codec
    Format profile : High@L4
    Format settings : CABAC / 4 Ref Frames
    Format settings, CABAC : Yes
    Format settings, RefFrames : 4 frames
    Codec ID : 27
    Duration : 1 h 21 min
    Bit rate : 12.4 Mb/s
    Width : 1 920 pixels
    Height : 1 080 pixels
    Display aspect ratio : 16:9
    Frame rate : 29.970 (30000/1001) FPS
    Color space : YUV
    Chroma subsampling : 4:2:0
    Bit depth : 8 bits
    Scan type : MBAFF
    Scan type, store method : Interleaved fields
    Scan order : Top Field First
    Bits/(Pixel*Frame) : 0.200
    Stream size : 7.07 GiB (92%)

    Audio
    ID : 1329 (0x531)
    Menu ID : 1336 (0x538)
    Format : AC-3
    Format/Info : Audio Coding 3
    Commercial name : Dolby Digital
    Codec ID : 129
    Duration : 1 h 21 min
    Bit rate mode : Constant
    Bit rate : 384 kb/s
    Channel(s) : 6 channels
    Channel layout : L R C LFE Ls Rs
    Sampling rate : 48.0 kHz
    Frame rate : 31.250 FPS (1536 SPF)
    Bit depth : 16 bits
    Compression mode : Lossy
    Stream size : 224 MiB (3%)
    Language : English
    Service kind : Complete Main



    Link(s):
    Hidden Content:
    You must either reply or click 'Like' to see the hidden information contained here.
     
    rkn9 and mobbius like this.
  2. Loading...


  3. CELOBRAZiL

    CELOBRAZiL Well-Known Member Capper V . I . P. Donor

    Joined:
    Oct 2, 2013
    Messages:
    8,030
    Likes Received:
    28,281
    :love::love::love:

    Added GOOGLE DRIVE link! :)
     
  4. Fabio Barbosa

    Fabio Barbosa Well-Known Member

    Joined:
    Sep 28, 2015
    Messages:
    890
    Likes Received:
    372
    Thanks
     
    CELOBRAZiL likes this.
  5. lok111

    lok111 Active Member

    Joined:
    Jun 28, 2017
    Messages:
    181
    Likes Received:
    54
    thanks
     
    CELOBRAZiL likes this.
  6. brunolima284

    brunolima284 Active Member

    Joined:
    May 13, 2017
    Messages:
    585
    Likes Received:
    39
    obrigado
     
    CELOBRAZiL likes this.
  7. Jenkins

    Jenkins Well-Known Member

    Joined:
    May 30, 2019
    Messages:
    24,545
    Likes Received:
    508
    THANKS